&title=CHOVERY GOOSE!!!
&artist=MYUKKE.
&first=0
&des=BYangTeleVision_
&lv_5=14
&inote_5=(180)
{1}
,,
{8}
34,,34,,1/8x,,2,2,4,3,4,,2/5x,,,,
45,,45,,7/8x,,6,6,2-5[8:1],,6-1[8:1]/2,,6x,,,,
34,,42,,1x/8,,2,2,4,3,5,,2x/6,,,,
56,,47,,4/8x-4[8:1],,8/4>6[2:1],,,,3-8[8:1],,3x,,
{16}1b,,,,3h[4:1]/4,,,,1x,,,,8-4[8:1],,1,,
8x/2,,,,5/6h[4:1],,,,8x,,,,1-5[8:1],,8,,
1x/7,,,,3h[4:1]/4,,,,1x,,,,8-4[9:1],,1-5[8:1],,
8x,,1b<4[2:1],,,,4,,3,,2,,1,,8b,,
1x/7b,,,,2x^7[8:1],,3,,4,,5x^2[8:1],,6,,7,,
8x,,1,8,1x^4[8:1],,8,,7,,6x,,5,,45,,
2x/7x,,3,3,5x,4,5,4,6x,3,6,3,{24}8x,7,6,2x,3,4,8x,7,6,
{16}5b/1x-5[10:1],,,,1/7x-4[10:1],,,,7,,2x-6[8:1],,,,
8xw4[8:1],,,,8bV64V28[7:8]/Cf,,,,,,,,,,,,,,,,,,,,,,,,,,,,
1w5[8:1],,,,1bV35V71[8:6]/Cf,,,,,,,,,,,,
,,,,5x,6,7,8,4x,3,2,1,8x-4[8:1],,17,,8b,,,,
1x/5,,2,,2,,3,4,2x-6[8:1],,6-2[8:1],,
2-4[10:1],,,,8x,,7,,7,,6,5,7x-5[8:1],,5-1[7:1],,
7,,,,3x,,2,,2,,3,4,2x-4[8:1],,5-1[7:1],,
2,,5,,2hx[8:1],,7,,7,,6,5,7hx[8:1],,5h[8:1],,
3h[8:1],,1h[8:1],,8bx,,7,,7,,6,5,7x-3[8:1],,3-7[8:1]
,,
7-5[10:1],,,,1x,,2,,2,,3,4,2x-4[8:1],,4-8[7:1],,2,,,,
6hx[4:1],,1,,2h[4:1],,,,5x^2[6:1],,6,,
7,,8x-4[7:1],,,,8x,,2,,1,,8xw4[8:1],,,,8b/Cf,,,,
3x-1[8:1],,4-8[8:1],,3,,4x,,,,1h[4:1],,8x,7,6,5h[16:3],
3x^1b[8:1],,4-8[8:1],,3,,4x,,,,1h[4:1],,8x,7,6,5h[16:3],
3x^1b[8:1],,4p8b[8:1],,3,,4x,,,,1h[4:1],,8x,7,6,5,
2x/4,,1,,5/7x,,8,,12,,3x/8b,,
4b/7x,,5,,7x-5[8:1],,8-4[8:1],,7,,8x,,,,5h[4:1],,4x,3,2,1h[16:3],
7x^5b[8:1],,8-4[8:1],,7,,8x,,,,5h[4:1],,4x,3,2,1h[16:3],
7x^5b[8:1],,8p4b[8:1],,7,,8x,,,,5h[8:1],,4x,3,2b/E6f/B6/B5,,,,
B2/E3f/B3/7b,,,,C,,1b/8x,,2x/7b,,3b/6x,,,,
3h[8:1],,1,,1/2x,,8,2,8h[8:1],,7h[8:1],,
6hx[8:1],,5h[8:1],,4,,3<8[4:1],,2x,,1,,,,2,,
3x/1,,4/8h[8:1],,5,4,3,2,8x,7,6,5,1V35[5:1],,6,,
1b,,8b<4[5:1],,,,8,,3,,2,,1,,8x/7b,,
1b/6x,,2h[4:1],,4x,,5,,6h[8:1],,4,5,3x,,2<4[3:1],,
8,,6x,,,,1,,8,,7h[8:1],,5,6,4,,
3,,2x/5,,1,6,1,6,8,7,8,7,{32}1x,2,3,4,5-1b[10:1],6,7,8,
1x,2,3,4,Cf,,,,{16},,28,,,,3h[8:1],,8x,,17,,
26,,35,,4hbx[8:3],,,,,,6,,1bx,,5h[4:1],,
,,3,,8bx,,4h[8:2],,,,8h[8:5],,1b,,2,,
3,,4,,5xhb[8:3],,,,,,6,,1bx,,4h[4:1],,
,,3,,8bx,,5h[8:2],,,,6,,3x-8[10:1]/7x-4[10:1],,,,
37,,,,4x^7[8:1],,,,4x,,{32}1,2,3,4xh[32:13]/8xh[32:9],,,,,,,,,,,,,{16}6,5,7xh[4:1],,4,,3,,2,,8x-5[10:1]/1x-4[10:1],,,,
81,,,,5x,4,6,3,7x,2,8,1,{24}8x,7,6,1x,2,3,
{32}7bx,6,5,4,8bx,1,2,3,{16}8bx-4[8:1]/4,,,,8^3[8:1]*^5[8:1],,,,8w4[8:1],,,,
8b,,,,1h[8:1],,4,,6/8,,3,4,1h[8:1],,4,,
6/8,,3,4,1h[8:1],,4,,6/8,,3,4,1-5[8:1],,6-8[10:1],,
1,,6,,1h[4:1],,8,,7-5[8:1],,8,8,7-3[8:1],,1-5[8:1],,
7,,1,,6,,7,,8/4,,6/2^5[8:1],,,,2,,
6,,7,,8h[8:1],,5,,3/1,,6,5,8h[8:1],,5,,
3/1,,6,5,8h[8:1],,2h[8:1],,4h[8:1],,6,,87,,1/2,,
3/4,,56,,7h[8:1],,5,6,4,5,3h[2:1],,,,4,,
5,,6,,7,2,6,2,5,2,4,{32}2,,3,2,1,8,7,6,5,4,{16}3/1b,,,,
1h[8:1],,4,,8,6,3,4,1h[8:1],,4,,
8,6,3,4,1h[8:1],,4,,8,6,3,4,1h[8:1],,4,,8,6,2,5,
1,8,2,7,3,6,4,7,1h[8:1],,3h[8:1],,
5h[8:1],,7,,2/8,,5,4,6,3,7,2,8,1,6,3,7,2,5,4,
6h[8:1],,8,,5,2,7,8,6h[8:1],,8,,
5,2,7,8,6h[8:1],,8,,5,2,7,8,6x/1b,,8b/2,,
7b/4x,,2/5b,,3x,4,2,5,1x,6,8,7,{32}1xb,2,3,4,5x,6,7,8,
1bx,2,3,4,5x,6,7,8,{16}1b/5,,2h,6,4x/8b,,7h,3,1b-5b[8:1]/5x,,,,
1bw5b[12:1],,,,1b/Cf,,,,
3hx[8:1],,4,,52,,6,5,6x,,7,,
82,,3,,3,,2,4,2h[8:1],,4h[8:1],,5hx[8:1],,7h[8:1],,
1,,7,,7x,,7,6,5h[8:3]/3,,2,,2x,,2,3,
4h[8:3]/6,,7,,7x,,7,6,5/1-5[8:1],,82,,1x,,,,
6xpp1[16:10],,,,4,,3,,2x-5[8:1],,,,2,,,,
4x^1[8:1],8,4,,8,,7,,6hx[8:1],,7h[8:1],,
8h[8:1],,1,,3x^8[8:1],,4,,5,,,,6x^3[8:1],,7,,
8,,8x-4[8:1],,,,8,,2,,1,,8xw4[8:1],,,,8bx,,,,
6h[8:1],,8,,8x/7,,1,7,1h[8:1],,2h[8:1],,
3hx[8:1],,4h[8:1],,5h[8:1],,6>1[32:7],,7x,,8,,,,8h[8:1],,
7hx[8:1],,6h[8:1],,5,4,3,2,8x,7,6,5,2^5[6:1],,5,,
2x,,8bV64[5:1],,,,8,,4x,,3,,2,,1b/8x,,2x/7b,,
6,6,1b,8,2,6,3,5,1b,7,2,6,1b,8,
1b,6,1b,5,3,7,1b,6,1b,8,1b,8b,2,6,1b,5,
1b,7,1b,8,1bx,2,3x,4,8x,7,6x,5,{32}1x,2,3,4,5,6,7,
8,1x,2,3,4,{16}5x/1b,,,,3b/B8/B7/E8f,,,,2x/6b,,3b-8[8:1]/7x-4[8:1],,,,
37,,,,1h[16:10],,,,,,5,,6,,7h[2:1],,,,8,,1,,2h[4:2],,,,8,,7,,6,,5v8b[8:1]/1v4b[8:1],,
,,5b/1b/C,,,,,,Ch[32:1]f/B7/B6/B2/B3/B1/B8/B4/B5/E1/E7/E5/E3/E8/E2/E6/E4,
