&title=METHEUS
&artist=tokiwa
&first=0.06
&des=yokiwa
&des_5=yokiwa
&lv_5=13+
&inote_5=(193){4},,,,,,,,{1}Cf,
,8-3-1-5<6<7>8>1>2[2:3],
,5-8-4-1-6-3[2:3],
,Ch[1:1],
{4}8h[4:1],{8}1,7/2,,,,,5/7h[8:3],
,,1,{2}1>4[4:1],
{8}6,6h[4:1],,4h[4:1],,6,5,6,
5-8-6-4[2:1],,,3,{4}3,2<7[4:1],
{8}4,4,,5h[4:1],,3,4,3,
4-6-8-2[2:1],,,3,{4}3,4h[4:1],
1<5[8:3],{8}2,2,,4,3,2,
{4}2h[4:1],{8}8-5[8:1],1,{4}8,{8}3-8[8:1],4,
{4}3<6[8:1],{8}7/3,8h[4:1],,1,{16}6,5,6,5,
{4}4/7b-1[8:1],7/2-4[8:1],2/5-7[8:1],5,
{8}2,4,3,5,{4}5h[4:1],{16}8,1,2,3,
{4}4/6h[4:1],3-1[8:1],3/7-5[8:1],7/8,
{8}3,1,2,8,{4}8h[4:1],{16}5,4,3,2,
{4}1h[4:1]/7-4[8:1],7,{8},3,4,1,
8,5-1[8:1],6,5,,7,8,5,
{4}4>1[8:1],4-8[8:1]/7-4[8:1],4/7-3[8:1],7,
{8}1,1,6,{16}6,5,{4}7<4[8:1]/3>8[8:1],7-2[8:1]/3-6[8:1],
{2}7bx/3bx/Cf,3xh[1:1],
{4}E8,Ch[4:1],,,5h[4:1],
8h[4:1],{2}6xh[1:1],
{4}E2,Ch[4:1],{8},,8/7,1/6,
2h[4:1]/5h[4:1],,,4/6,{2}4/B7,
{8}7h[4:1]/4h[4:1],,,5/3,{2}5/B2,
{8}7<4[8:1],7,1-5[8:1],1,8-4[8:1],8,2>5[8:1],2,
8b,8b,8b,8b,{4}8bh[4:1],Cfh[4:1],
8-4[8:1],8/6-1[8:1],6/3>8[8:1],3/7-3[8:1],
7,{8}2,1,4,5,8,7,
{4}1-5[8:1]/6-1[8:1],1/6,{8}3,3,4,5h[4:1],
,1>4[8:1],8,1<6b[8:1],,1b,,,{4}2>5[8:1],
2/7-3[8:1],7/4-8[8:1],4/6-1[8:1],
6,{8}3,4,1,8,5,6,
{4}4>1[8:1]/7<4[8:1],7/4,6h[4:1],{8}8,7,
4,5,1,{16}7,8,{4}7v4[8:1],{8}1,1,
{4}1-5[8:1],1b/6<1[8:1],6b,{8}2,2,
{4}3-8[8:1],{8}7,6,5,4,5,{16}3,4,
{4}2-6[8:1]*-5[8:1],2,8h[4:1],{8}B3,B5,
,7,8/1,2,3,7/4,{16}6v1[8:1],5,6,5,
{4}6b,3>8[8:1],3/7-4[8:1],{8}7,3,
2,1,8,7,4/6,3,2,{16}8,1,
{4}7-5[8:1],7/3-8[8:1],3,{8}6,4,
5,3,4,{16}5x/3x,2x/6x,{2}7xh[2:1]/1xh[4:1],
{1}1-7-5-3-1<8<7<6>5>4>3>2<1[4:5],
{2},Ch[4:1],
1h[2:1],{8}7h[8:3],,,5,
{4}5>2[4:1],2<7[4:1],{2}C,
{4}6<1[4:1],1p5[4:1],{2}5q2[4:1],
B3/B4/E4f,{4}1/7h[2:1],{8}E3,E4,
{2}E5f,{8}8/2h[2:1],,,7,
{4}7h[4:1],5h[4:1],4h[4:1],{16}1,2,3,4,
{4}5h[8:1],6h[8:1]/7h[8:1],2h[8:1]/3h[8:1],5h[8:1]/4h[8:1],
{8}6/2,6/2,7/3,7/3,{2}8bh[4:1]/4bh[4:1],
{4}2q5[8:3],2/1,,7h[4:1],
{8}1,8,3,4,8h[8:1],{16}6,5,4,3,2,1,
{4}8-4[8:1],8,{8}1h[8:1],{16}3,4,5,6,7,8,
{8}1x-5[8:1],5x-8-4[4:1],{4}1x,{8},,7-3[8:1],{16}6,8,
{4}7,B1/B2,{8},6h[8:1],4,5h[8:1],
{4}3,{8}6/1,6h[4:1]/1h[4:1],,,5/2,{16}3,4,
{4}3>1[8:1],3/7<5[8:1],7,{16}1-5[8:1],2,3,4,
{4}1/5,{16}7-3b[8:1],6,5,4,{4}7/3,Cfh[4:1],
1-5[8:1],1/3-8[8:1],3/6<1[8:1],6/2-5[8:1],
2/7-3[8:1],7/4>1[8:1],{8}4/8,7,6,5,
{4}1-5[8:1]/4-7[8:1],1b/4b,{8}1/2,3/8,{4}4/7h[4:1],
{8}3,2,1,8-4[8:1]/7-3[8:1],,8b/7b,,,{4}6<1[8:1],
6/3-8[8:1],{8}3/7-3[8:1],6,7/2>5[8:1],1,
2/8-4[8:1],7,8/3>8[8:1],2,3/7,6,{4}5h[4:1],
8-4[8:1],8/6-1[8:1]*-2[8:1],6,{8}3,4,
1,8,4/7,{16}6,5,{4}6h[4:1],{8}4,4,
{4}4b>6b[4:1],Cf,,2-6[8:1]*-5[8:1],
2,8<3[4:1],{2}8h[4:1],
{4}5h[8:1]/2h[8:1],{8}3-8[8:1],4,{4}3,6-1-4[4:1],
{2}6h[4:1],{8}5/2,6/1,{16}7v4[8:1],8,7,8,
{4}7b,2-6[8:1],2/1-5[8:1],1/8-4[8:1],
8/7-3[8:1],7/6,{8}5h[8:1],4,6h[8:1],3,
{4}7/2>5[4:1],5<8[4:1],8>3[4:1],3<6[4:1],
{8}8,8,8,{24}8,1,2,3,4,5,6,7,8,{4}1-5[8:1],
{1}Cf/1b>6p8[2:3],
,6-1-7-3>5[2:3],
,4-2-5>6[2:3],
,4h[4:3]/B7/E7,
6h[4:3]/E1/B1,
{2}8/1h[2:1],{8}6h[8:3],,,4h[8:3],
,,{4}5,{2}6/3,
{8}5/4h[8:3],,,7h[4:1],,1,8,3,
4,5,{4}6h[4:1],8q4[8:1],8,
6,6/4,6,6/3,
6,6/2,{8}5,3,5,4,
5/2,3,4/7,6,5/1,3,4/8,6,
{4}8/1,{8}6/5,7xh/4xh,,Ch[8:3],,,{4}B8/B7,
B5/B4,{16}2,4,3,5,{8}4,E7/B6,
,E1/B1,,B6,B4,B2,{16}7,8,6,1,
{4}7w3b[8:1],7b/Cf,1q5[8:1],1/8>3[8:1],
8/7q3[8:1],7/6<1[8:1],6/5w1[8:1],5b/Cf,
7-5[8:1],1/7-1[8:1],4/7<5[8:1],2/7>1[8:1],
3/7-4[8:1],7,{8}2,1,4,5,
{4}3h[4:1],{8}7,8,5,4,1,2,
{24}8bx,7x,6x,5xh[8:1],,,1bx,2x,3x,4xh[8:1],,,5bx,6x,7x,8xh[8:1],,,4bx,3x,2x,1xh[8:1],,,{4}Cf,
3qq4[4:1],3/5pp4b[4:1],5,
1-4[8:1],1/6-1[8:1],6,{8}3,5,
{4}4-2[8:1],4/7-4[8:1],7-1[8:1]/3-5[8:1],7/3-8[8:1],
3,{8}6,4,5,4,{32}4v1[8:1]*v7[8:1],3,2,1,8,7,6,5,
{4}4bx/Cf,6h[4:1],5h[4:1],4h[4:1],
3h[4:1],{8}5,4,6,4,5,3,
5/6,5/6,4/3,4/3,2/1,2/1,8/7,{16}6,1,
{8}6,5/2,{16}3,4,2,5,{4}1h[4:1],7xh[4:5],
{32}1b,2,3,4,5,6,,8,1,2,3,4,5,6,,8,1,2,3,4,5,6,,8,1,2,3,4,5,6,,8,
{1}1>2>3<4<5<6<7>8[2:1],
{4}8/1,{8}2,4,3,5,4,6h[4:1],
,8,1,2h[8:3],,,{4}8p4[8:1],
8b,{8}3,4,1,8,5,6,
3,4,5,6,5,4,3,5,
{4}4h[8:1]/6h[8:1],5h[8:1]/3h[8:1],{8}4,4,6,5h[4:1],
,3,2/6,{16}7,1,{4}7<4[8:1],7/1w5[8:1],
1b,B7,{8}B5,E3/B3,,B8/B1,
,E7,,B3/B4/E4,,E8,B2,B6,
{4}B4,{8}6,6,4,{16}4,3,2,1,{8}8/6,
,7,7,1,{4}1h[4:1],{16}4,5,6,7,
{1}8/2>7p2[2:3],
,8-2-6-1-4-8[2:3],
{4},,,C,
E
