&title=ポケモン音頭
&artist=石塚運昇; 小林幸子
&first=-0.34
&des=Cinno!
&lv_5=12+
&inote_5=(120.1){2},
{8}75,,64,,53,{16},
{32}3,4,3,,,,,,,,
{12}5,,24,,,1,2<8[8:1]/8<6[8:1],,,,,,
{8}24,,35,,64,{16},
{32}6,5,6,,,,,,7,,
{12}3<5[8:1],,3,6<8[8:1],,6,4<6[8:1],,4,7-3[8:1],,,
{8}4,,25,,36,{16},
{32}4,5,4,,,,,,6,,
{12}57,,57,,,8,1/7-3[8:1],,,
{8}2,,1,,28,,17,{16},
{32}1,8,1,,,,,,8,,
{12}17,,17,,,1,2/8-4[8:1],,,2,,,
{4}1h[4:1],3h[4:1],5h[4:1],7h[4:1],1>6[4:1],,8,17,12,34,
{12}5,6,7,8,,1,2>5[8:1]/6<1[8:1],,,,,,2>5[8:1]/6<1[8:1],,,,,,
{12}2,,2,4,,4,6,,6,8,,8,
{8}17,,28,,17,{16},
{32}2,8,2,,,,,,7,,
{12}68,,68,,,6,5/7s3[8:1],,,4,,,
{12}46,,46,,,4,
{8}35,{16},{32}3,4,3,,,,,,5,,
{16}46,,,,35,,,,2z6[8:1]/4,,,,5,,,,
{12}8,,7,7,,6,6<3[4:1],,,4,,,,,6,6,,5,5pp1[4:1],,,3,,,
{12}2,,3,3,,4,4qq8[4:1],,5,5,,,7,,,
{8}2>5[8:1]/5<8[8:1],,5>2[8:1],,,,
{12}7-5[8:1],,7,3-8[8:1],,3,4<7[8:1],,4,2v4[8:1],,2,8,,2,13,,4,3/5-1[8:1],,,7,,,
{12}28,,3,7,,48,48,,26,26,,7,3,,3,6pp8[8:1],,5,5>2[8:1],,,7,,,8,
{12},1/7<4[8:1],,,7,8-3[8:1],,8,7<4[8:1],,7,8>3[8:1],,8,7-4[8:1],,7,8pp4[4:1],,,
{12}5,,,6,,
{12},2>5[8:1],,2,1-6[8:1],,1,2>5[8:1],,2,1-6[8:1],,1,2-5[8:1],,2,1qq5[4:1],,,4,,
{12}3-7[8:1],
{24}3,,,,35,,,,,,6p1[8:1],,6,,,,26,,,,,,2q3[4:1],,2,,,,5,,5,,,,6<3[4:1],,{4}6,4,
{24}1,,6-8[8:1],6,,,2,,,,3,,1,,6-1[8:1],6,,,2,,,,3,,3p4[8:1],,,,
{24}5<2[4:1],,5,,,,,,{4}3,5-1[16:1],5b<4[2:1],,,
{12}8,,1,2/8-4[8:1],,,68,,7,6-1[8:1]/8,,,46,,
{12}4,6-2[8:1],,6,5-1[8:1],,5,6-2[8:1],,6,5-1[8:1],,5,
{8}7,,28,,13,{16},
{32}2,8,2,,,,,,7,,
{12}68,,68,,,5,6/4-8[8:1],,,1b,,,,,,,
{12}8,7,8/6,7,6,5/7,4,3,24,3,2,13,8,1b/7bp5[4:1],,
