&title=キカイノミルユメ
&artist=はがね
&first=0
&des=おにねこ
&wholebpm=128
&lv_5=13
&inote_5=(128)
{1},
{8}
1s5[16:11]*>8[8:20],,,,,,,,,
5z1[8:8],,,,,,,,,,,,,
{16}
3h[16:7],,,,4,,,5h[16:9],,,,,4,,,,
3h[16:7],,,,4,,,6h[16:9],,,,,4,,,,
2h[16:7],,,,4,,,7h[16:9],,,,,4,,,,
1h[16:7],,,,4,,,8V61[16:5],,,,,,,,,
{8}5,,4-7[16:2],,3,,2-5[16:2],,1,,8-5[16:2],,3,,4,,
5h[8:1]/6,7,{16}4,5,,34,3h[8:1]/4h[8:1],,,,
5h[8:1]/2h[8:1],,,,1/8,,2,1<2[8:7],3,4,,1,
{8},,,,,,8<1[16:9]*p3[16:6],,,,,,,,{16}3,3,4,,
6h[8:1]/5h[8:1],,,,7,5,,5,
,5,6,4,7,,4,5,
3,4,,4,2,4,3,5,,5,4,6,2,,,,
3h[8:1]/4h[8:1],,,,2,4,,4,
,4,3,5,2,,5,4,
6,5,,5,7,5,6,4,,4,5,3,7,,,,
7h[8:1]/5h[8:1],,,,8,5,,5,
,5,6,3,8,,3,4,
2,4,,4,1,4,3,6,,6,3,6,1,,3,,
2h[8:1]/4h[8:1],,,,1,4h[8:1],,3h[8:1],
,5,4,6,1,6h[8:1],,4,
7,5,7,5,8,1,4,3,,3,5,3,8,1,7,2,
6b,,3,4,,4,5,,8<5[8:1],,,,,,,,
4h[8:1],,3,4h[8:1],,7,4h[8:1],,1,4,,
85,,7,8,,61,,2,1h[8:1],,6,1h[8:1],,4,1,,65,,43,,2,
4,3,4,2,1,2,7,8,7,{24}4,5,4,{16}5,2,4,3,7h[16:5],
5,,2,,5,6,2,1,,4,5,2,1,2,3,2h[8:1],,7,5,6,1,8,3,4,{24}2,1,2,{16}1,
3,4,1,7,,4b/5b,,8b/1b,,5b/4b>1[16:3],7b/2b,,5b/4b,,8,,7,,6,4,5,
43,,25,,7,5,4>5[16:6],2,,,,,,,,,
{4}
1q4[8:12],5,,6,,7,,8h[8:2],
{4}
5q8[8:12],4,,3,,2,,1h[8:5],
{8}4,5,7,6h[8:4],,4,2,3h[8:4],,4,6,5h[8:3],,4,2h[8:2],,4V62[16:4]*qq1[16:11],,
,,,,,8h[8:3],,2,3,{24}5,4,5,{8}4-7[8:1]*-1[8:1],62,4b,,
{16}8v3[8:1],,12,,3q7[16:2]/8,,,2>6[16:3],,,1,,8,8,,7V15[16:3],,,5-3[32:3],,3,3,,2,,1,1,6,3>7[16:3],4,,,34,,5,,6,6v1[8:1],,1p5[32:5],,,4,,3,,2,,18,,2/7,,3/6,4,5,3V52[16:3]/6,,5,5,,8h[8:2],,,,
1q6[8:1],,78,,6>3[16:2]/1,,,7qq8[16:4],,,8,,1,1,,
2V83[16:3],,,3-7[32:4],,4,4,,5,,6,6,8,4V61[32:7],2,,,
14,,2,,3,3v5[8:1],,5p1[32:5],,,6,,7,,8,,12,,54,,2b/7b,1,8,7b/2b,,3,4,5,6<3[8:6],5,4,3,
{8}6,,,,,,,,2V47[8:4]/7V52[8:4],,,,,,,,
{16}7/5h[16:3],,,6h[16:3],,,4h[16:2],,7,3h[16:3],,,4,,2,2,
7b,1,4,3,
6b,2,4,3,
5b,4,3,2,6b/1,,7,7,
8<5[8:1],,1,,2/8p4[16:2],2,,3qq3[16:4],8,,3,,5,5,,
6,6<1[8:1],,2/1p5[16:2],,64,4,,3,,2,2,4,5>2[8:1],7,,,56,,8h[16:3],,4,4<8[16:2],,3,4b,,1,,2v3[32:4],,3-5[32:4],,6,,7,,8,8h[8:1],,
{4}4qq5[16:8]*qq7[16:10],,,,
{16},8h[16:1],1h[16:1],7,7,3h[16:1],4h[16:1],2,2,
6,6,5,5,3h[1024:1],3h[1024:1],1h[1024:1],1>4[32:5],,,,,
{32}5,6,7,8<1[8:32]*s4[8:15],
