&title=キューピッド
&artist=あ子 feat.葉月ゆら
&first=0
&des=NekoMuseigen
&lv_5=13+
&inote_5=(148)
{1},
{8}
,,6h[8:1],5,7h[8:1],5,6h[8:1],5,7h[8:1],5pp8[8:5]*qq2[8:5],
8,,,,,,,,
2h[8:1],4,3h[8:1],
4,2h[8:1],4,1h[8:1],4pp4[16:4],
8,,
2h[8:4],,
3h[8:2],,,,
{16}
6/7h[8:1],,5,,4h[8:1]/6,,7,,8h[8:1]/5,,4,4,6h[8:1],,3,,
4/2h[8:1],,5,,6h[8:1]/3,,2,,1h[8:1]/5,,4,4,3h[8:1],,7,,
4/6h[8:1],,2,,1h[8:1]/5,,7,,8h[8:1]/3,,5,5,6h[8:1],,3,,
1h[8:4]/7,,6,,5,,4,,{24}3-7[8:1],4,5,6,7,8,{16}1,,,,
8/2h[8:1],,7,,6h[8:1]/5,,4,,3h[8:1]/7,,8,8,4h[8:1],,6,,
2/5h[8:1],,1,,8h[8:1]/7,,6,,5h[8:1]/1,,3,3,7h[8:1],,5,,
8/4h[8:1],,6,,5h[8:1]/1,,3,,4h[8:1]/8,,6,6,2h[8:1],,8,,
7h[8:4]/2,,3,,4,,5,,6-3[8:1],,7,,8,,1,,
2-7[8:1],,,,4,,5,,6-3[8:1],,,8,8h[8:2],,,,4,,,,
35,,6/2,,17,6,5,4,1,4,2,4,
3h[16:3],,,1,2h[16:3],,,8,1>4[16:2],,,,4,,5,,6<1[8:1],,7,,2>5[8:1],,3,,6h[8:2],,,,5,,,,
7-2[8:1],,,,5,,4,,3-6[8:1],,2,,1,,8h[8:1],,4,,,,
53,,2/6,,7/1,2,3,4,7,4,6,4,
5h[16:3],,,3,4h[16:3],,,2,3<6[16:2],,,,1,,2,,7,6,4,3,6,5,3,2,
8,7,4,3,6b/2b,,7,,
8-5[8:1],,,,82,,3,,4-1[8:1],,,5,4,,,7,8h[8:2],,,,6,,7h[16:4]/5,,8,1,2,3,6,3,5,3,
4h[16:3],,,2,4<7[8:1],,,1,4>1[8:1],,,,8,,7,,6<1[8:1],,2>5[8:1],,6-2[8:1],,2,,6,,,,3,,6,,
4-1[8:1]/5,,,,8-5[8:1],,8,,3-8[8:1],,3,,7,,7h[8:1],,2-8[8:1],,6-4[8:1],,2pp6[8:3],,6,,2,,,,1,,,8,8<5[8:1],,,1,1-5[8:1],,2-6[8:1],,1,,2,,8-4[8:1],,7-3[8:1],,8-2[32:3],,7-5[32:3],,8,,7,,8h[8:2],,,,4b,,,,
{8}
3,2h[8:4],,,8,7h[8:4],,,1,3h[8:4],,,8,6h[8:4],,,
5,2h[8:4],,,4,7h[8:4],,,6,4h[8:3],,,3-8[8:1],5h[8:3],,,
6-1[8:1],,4h[8:2],,2-6[8:1],,5h[8:2],,
7-3[8:1],8,4h[8:2],,1-5[8:1],8,7h[8:2],,
{16}3,4,6,7,3,4,6,7,2,3,5,6,1,2,5,6,
3b,7,7,,37,37,,48,,37,,26,26,,15,,
{8}7b/3bV17[32:5],4,6V82[32:5],5,3V17[32:5],4,6V82[32:5],5,4h[16:4],,7-3[8:1],3-7[8:1],,
1,2,3,6/4V62[16:3],,7,8-4[16:2],,8/3-7[8:1],,3/6h[8:2],,1,2v5[8:1]/6v1[8:1],37,26,,
,6,8h[8:1]/4,3,6/2h[8:1],5,7-3[16:2]/3,,7/2>5[16:2],1,2/7p8[16:3],8,4,4h[8:4],,1,,
8p3[16:3],7,,1>5[16:3],2,,6q3[8:1],,6/4-8[8:1],,4/7-3[8:1],6,27,{16}1s5[16:2],1,5,5,1b,,,,
3/6h[16:2],,4,4,6h[16:2],2,2,,6h[16:2],,1,1,6h[16:2],3,3,,4/6<1[16:2],,3,3,,2,2,,1<6[8:1],,2,,3,,4,,
6/3h[16:2],,5,5,3h[16:2],7,7,,3h[16:2],,8,8,3h[16:2],6,6,,5/3>8[16:2],,6,6,,7,7,,8>3[8:1],,7,,6,,5,,
34,,2-6[8:1],6,1,5,2,,8,,7-3[8:1],3,8,4,7,,2,,1-5[8:1],7,3,5,1,,6,,8-4[8:1],2,6,4,8,,
{4}1h[8:11],,3,,{8}7,,,5,2-7[8:1]/6-3[8:1],,26,,
{8}1<6[8:1]/5,2,3,4,{16}5/6<1[8:1],,4,4,6,,3,,
{8}1<6[8:1]/2,3,4,5,{16}4/6<1[8:1],,3,3,6,,2,,
{8}8>3[8:1]/7,7,6,5,{16}4/3>8[8:1],,5,5,3,,6,,
{8}8>3[8:1]/7,6,5,4,{16}5-1[8:1],6,7,8,1,,,,
{8}4-7[8:1]/3,5,43,2,{16}1/2-5[8:1],,8,8,2,,7,,
{8}5-2[8:1]/6,4,56,7,{16}8/7-4[8:1],,1,1,7,,2,,
{8}4-7[8:1]/3,5,43,2,{16}1/2-6[8:1],,8,8,2,,7,,
{8}6-2[8:1]/5,7,65,4,{12}3,3,4,2,2,1,
2b/8h[12:2],,3,6<1[16:2],4,4,
6,,,{16}3h[8:1],,5,5v8[8:1],
1,,,5,,,2-6[8:1],3,4,,,,{48}8h[48:7],,,,,,,
{12}5qq2[8:3],6,4,{48}7,,,,,,,,,,,,,{12}8,8,,,3,4,2,15,15,15,26,26,26,3/7h[12:3],,,
4V25[16:4],8,8,4,,,{8}6-2[16:2],6,4-1[8:1],4,8-5[8:1],8,2-5[16:2],3,6-1[8:1],7,
5>8[8:2],,8,7,6,6h[8:2],4,4h[8:2],8-5[8:1],8,2,2h[8:1],7<4[8:1],3>8[8:1],7s3[16:5],3,
7,,,,
{16}6,,6,,6,5,6,,7,,6,,6,5,6,,8,,6,,6,5,6,,7<4[8:1],,8,,1,,2,,
3,,3,,3,4,3,,2>5[8:1],,1,,8,,7,,6<1[8:1],,5,,4,,3,,2p1[8:2],,,,8,,,,7,,
6,,6,5,6,,7qq5[16:3],,8,,1,,2,,3h[8:1],,4,,3h[8:1],,1,,3h[8:1],,5,,3h[8:1],,8,,
1-5[8:1]/2,,13,,,,,,7/8-4[8:1],,86,,,,,,7/5-1[8:1],,,,,,,,4-8[8:1]/3,,,,,,,,
{4}2/6pp2[8:10],3,4,5,4pp8[8:16],,,,,1,2,3,4h[16:11],,{16}8,7,6,5,4/1,2,3,4,
7b,8,6,1,5,2,4,3h[16:2],5,5,3,6,2,7,1,8h[8:1],2,2,8,3,7,4,6,5h[8:1],7,6,5,4,8,7,6,5,
{12}1,1,3,8,8,6,7,7,7,73,37,37,{16}6,2,7,3,8,4,1,5,{32}8w4[8:1],7,6,5,4,3,2,1,{16}8b,,,,{12}21,21,21,38,38,3/8h[48:22],{32}4,5,6,7,,1,2,3,{16}4,,1,1,
82,,7,5,6,4,7h[8:1],,5,6,3,5,4,6,5,7,
2,8,2,1,2,3,2,4,3,5,3,5,7,5,7,5,
2b,8,1,7,3,5,4,6,
{12}5-1[8:1],7,7,{4}5b<5[8:7]*>5[8:7],,,,,,
