&title=Antifront Gears
&artist=Getty vs DJ DiA
&first=0
&des=Guilty
&lv_5=14
&inote_5=(200)
{1},
3>6[4:11]/Ch[1:3],,,,7<2[4:10]/Ch[1:2],,,
{4}1,2,3,4,4/5h[1:1],,6,,7h[1:1],,8,,1h[1:1],,2,,3h[1:1],,4,,5,6/4,7/3,2/8,1,2/4,3/5,6/4,7p4[4:3]/5,,,,{1}C,
{8}2/4,3,2/4,,5,6/4,6/4,,7/5,6,7/5,,4,3/5,3/5,,3/4,2,4/3,,6/5,6/5,7,,3/4,2,5/4,,6/5,5/4,7,,
3,3,4,4,5,5,6,6,2,2,4,4,5,5,7,7,{16}
2x,4,3,4,2x,5,3,5,2x,4,3,4,2x,5,3,5,{8}2x-5[8:1],1,7-4[8:1],8,1w5[8:1],,1b,,
3h[4:1],,4,5-1[8:1],,7/5,,6,6h[4:1],,5,4-8[8:1],,2/4,,2,
2h[4:1],1,8h[4:1],3,4h[4:1],2,1h[4:1],,5,5h[4:1],1,1,8/4,3/7,2/6,,
6h[4:1],,5,4-8[8:1],,2/4,,3,3h[4:1],,4,5-1[8:1],,7/5,,7,
7,3/4,6/5,2,2,7/5,3/4,6,6^1[8:1],,6/2w6[8:1],,2,,E1/B8/B1,,
2/4,,6/5x-2[8:1],5,6x-1[8:1],6,3x-8[8:1],3,4x-7[8:1],4,1x-4[8:1],1,8x-5[8:1],8,1,2x,
2hx[4:1],,3x-1[8:1],4,5x-7[8:1],6,2x,3,4x/8x,3x/7x,2/6,1/5,8-3[8:1]/4-7[8:1],2/6,8/4,,
1/5,,3/4x-7[8:1],4,3x-8[8:1],3,6x-1[8:1],6,5x-2[8:1],5,8x-5[8:1],8,1x-4[8:1],1,8,7x,
7,3/4,6/5,2,2,7/5,3/4,6,{16}3,4,3,,6,5,6,,4,5,4,5,{4}3h[4:1]/6h[4:1],
,,
{16}
3h[4:1]/6,,,4,,,5,,5h[4:1]/2,,,4,,,3,,3-7[8:1],,2,,1-4[8:1]*-6[8:1],,,,1,,,,2/8,,,,
6h[4:1]/3,,,5,,,4,,4h[4:1]/7,,,5,,,6,,6x-2[8:1],,7x,,8xw4[8:1],,,,8,,,,1/7,,,,
3h[4:1]/6,,,4,,,5,,5h[4:1]/2,,,4,,,3,,3-7[8:1],,2,,1-4[8:1]*-6[8:1],,,,1,,,,2/8,,,,
{8}2,6/5,3/4,7,7,2/4,6/5,3,{16}6,5,6,,3,4,3,,5,4,5,4,{4}6/3,
{16}
6h[16:3]/3,,,5,6,,4,,4h[16:3]/7,,,5,4,,6,,6^3[8:1],,7,,8v5[8:1]*v3[8:1],,,,8,,,,7/1,,,,
3h[16:3]/6,,,4,3,,5,,5h[16:3]/2,,,4,5,,3,,3x^6[8:1],,2x,,1x,,,,
{8}1x/8x,1,2,2,3,3,4,4,5,5,6,6,7,7,8,8,1/8,1/8,2/7,2/7,{16}3,6,3,6,4-8b[8:1],5,4,5,{1}4x,Cf/6<3[4:25],,B7/B8,,B5/B4,,B2/B3,
{4}1,2,{16}3,4,3,4,{4}3,
{8}4/5,,,4/5,,,4z8[4:3]/5-1[4:3],,{1},{8}2/4,,,2/4,,,2s6[4:3]/4-8[4:3],,{1},{8}1/7,,,1/7,,,1z5[4:3]/7V14[4:3],,{1},{8}4/6,,,4/6,,,4/6,,1,,2,,3,,1/7,,
3-1[8:1],4,5/3,,3-1[8:1],4,5/3,,3-1[8:1],5,6/3,,3-1[8:1],5,6/3,,
6,5,{32}4/6,7x,8x,,{8},6,5,{32}4/6,7x,8x,,{8},6,4,{32}3/6,7x,8x,,{8},6,4,{32}3/6,7x,8x,,{8},
3,3,4/3,4,5/4,5,6/5,6,2/6,2,4/2,4,5/4,5,7/5,7,
{16}4,5,3,6,4,5,3,6,4,5,2,7,4,5,2,7,{8}4,4,4/5,4/5,4/5,3/6,1b/8b,,
{8}
2^5[8:1]/6,,2/7,8,1V74[4:1],,3/1,2,
1V37[4:1],,1/4,5,6^1[8:1],,3/6,4,
5V38[4:1],,7/5,6,5V73[4:1],,8/5,1,
2^5[8:1],,2/7,8,1V74[4:1],,3/1,2,
1b^4[8:1],,1/6,7,8V26[4:1],,3/8,4,
5-2-8[4:1],,7/5,6,5^8[8:1],,5/2,3,
4V62[4:1],,7/4,8,1-6-4[4:1],,3/1,2,
{16}E2,B1,B8,E8,E4,B4,B5,E6,C,,8,1,8b,,,,
2/6,,3,4,3,,6,5,6,,3,4,3,4,3,,
6/2,,5,3,5,,4,6,4,,5,3,5,2,5,,
7/3,,6,5,6,,3,4,3,,6,5,6,5,6,,
3/7,,4,6,4,,5,3,5,,4,6,4,7,4,,
8b/3b,,6,5,7,,3,4,2,,6,5,7,5,6,,
7/4,,3,4,2,,6,5,7,,3,4,2,4,3,,
1/5,,2,4,3,,7,5,6,,2,4,3-7[8:1],4,3,,
3x/4x-8[8:1],,,,4,,,,1/7,2/6,3/5,4,E6/B5/B4/E4/E5f,,,,
{16}
2V46[4:1],,,7,2,,8,,1V75[4:1],,,4,1,,3,,
2V86[4:1],,,6,2,,5,,4V68[4:1],,,3,4,,2,,
1V35[4:1],,,5,1,,6,,7V53[4:1],,,2,7,,1,,
8V24[4:1],,,7,8,,6,,5V71[4:1],,,4,5,,3,,
2b-6-4[4:1],,,1,2,,8,,7V51[4:1],,,1,7,,2,,
3V15[4:1],,,8,3,,7,,6-2-8[4:1],,,5,6,,4,,
3V51[4:1],,,6,3,,7,,8V26[4:1],,,3,8,,4,,
{32}5x,E5,B4,B3,E3,,,,5x,E6,B6,B7,E8,,,,{16}1x,1x,1x,,2b/8b,,,,
7/4,,6,5,6,,1,,2/5,,3,4,3,,8,,
7/4,,6,5,6,,1,,2/5,,3,4,3,,8,,
7/5,,6,4,6,,1,,2/4,,3,5,3,,8,,
7/5,,6,4,6,,1,,2/4,,3,5,3,,8,,
8b/2b,,7,5,6,,2,,1/7,,2,4,3,,7,,
8b/2b,,6,5,7,,2,,1/7,,3,4,2,,7,,
8b/2b,,7,5,6,,2,,1/7,,2,4,3,,7,,
{32}8/2,7,6,5,,,,,8/6,1,2,3,,,,,{16}8bw4b[8:1],8b,8b,8b,8b,,,,{1},,E1f,
