&title=ピポピポ
&artist=Neko Hacker feat. ななひら
&first=0.38
&des=MiraT
&lv_5=14
&inote_5=(230)
{16}5,6,7,8,{8}12,3,5,64,2,8,37,5,34,2,7,51,2,3,74,6,45,3,8,26,7,1,38,4,
{8}6h[8:5],1,2,3,,{16}B4,B3,B2,B1,B8,,{8}7x,3,5,26,1,8,75,6,35,2,18,27,,5,4,5,
{8}3h[4:1]/4h[4:1],,,5h[4:1]/6h[4:1],,,2h[4:1]/4h[4:1],,,5h[4:1]/7h[4:1],,,8/1bw5[8:1],,,,
{4}3pp8[2:1],7,6,7,6qq1[2:1],2,3,2,2q6[4:1],8,7p3[4:1],1,2,18,7h[4:1],,
{4}3-8[4:1],5,6-1[4:1],4,3h[4:1],1h[4:1],8h[4:1],6,
{16}4x-8[16:3]/5x,,,6,,,7,,,,,,4x-8[16:3]/5x,,,6,,,7,,,,,,4x/5x,,B7/B6/B3/B2/C,,,,
{8},,,6,7,8h[2:3],,2,2,,4,,6,,4,,2,2V48[8:3],,8,8>6[2:1],,7,,7h[8:5],,,,,,,
{8}4,4,3,2h[4:5],,8,,6,,4,,6,,8,,27,,3,3,,6,6>3[4:1],,3pp6[8:5],,2h[8:9],,,,,,,,,,,
{8}6,5,8h[2:3],,2,2,,4,,6,,4,,2,2-7[4:1],,7-4[4:1],7,,4<8[2:1]*>8[2:1],,,,,,,,,
{8}2,7,1,8h[4:5],,E3,,E5,,E7,,E5,,C,,E7/E3,,,
{8}7x/8x,B2/C/B5,,2x/1x,B7/C/B4,,5x/6x,B8/C/B3,,4x/3x,B1/C/B6,,1b-5[8:1]/8b,,,,
{4}4x>1[4:1]/6xh[2:1],,,,5<8[4:1]/3,3,3,,1>4[4:1]/7h[2:1],,,,8<5[4:1]/2,2,2,,
{4}4-8[4:1]/6h[2:1],,,,5-1[4:1]/3,3,3,,{8}18,,6,5,7,,3,4,2,2z6[4:1],,7h[4:1]/2,,,,,
{8}2x/4x,3,3,2x/4x,3,3,2x/4x,,7x/5x,6,6,7x/5x,6,6,7x/5x,,2x/7x,1,1,2x/7x,8,8,2x/7x,,
{8}2b-5[8:1],,2/8b-4[8:1],,8/1b-5[8:1],,1/7b,,
{16}3,4,3,,6,5,6,,2,1,2,,7,8,7,,1,8,1,8,2,7,2,7,3,6,3,6,4,5,4,5,{4}4h[4:3],,,,E1,E5,C,3b/6b,
{8}28,3,45,6,17,6,45,3,28,3,45,6,17,6,45,,
{8}1-5[8:1],1,7-3[8:1],7,2-6[8:1],2,8-4[8:1],8,2h[4:3],,C,,E4,,E6,,
{8}18,2,35,2,18,7,46,7,18,2,35,2,18,7,46,,
{8}7x-4[8:1],,1,2x-5[8:1],,8,7x-3[8:1],,1,2x-6[8:1],,8,8,,2b/7b,,
{8}8,1<5[4:1],2,3,4,,B2/B3,B2/B3,,7,7,1,6h[4:1],,,,
{8}2-5[8:1],8-4[8:1],2,8,3>5[4:3],,7,7h[8:5],,,,,,,,,
{8}1,8>4[4:1],7,6,5,,B7/B6,B7/B6,,18,18,2,3h[4:1]/6h[4:1],,,,
{24}1/6,2,3,4,,,,,,8/3,7,6,5,,,,,,E8/E2,E7/E3,E6/E4,E5,,,,,,
{8}36,7-4[8:1]/2-5[8:1],,7b/2b,,,,
{1}Ch[1:7],,,,,,,,
{4}4-1[4:5]/5,5,5,5,5,5,5,5,
{4}5-8[4:5]/4,4,4,4,4,4,4,4,
{8}5,5,4,4,6,6,3,3,7,7,2,2,8,8,1,1,
{32}8,7,6,,1x,,,,7,6,5,,1x,,,,6,5,4,,1x,,,,5,4,3,,1x,,,,
{8}1hx[4:2]/3hx[4:2],,,,,,{32}5x,6x,7x,8b,,,,,
{8}2-5[8:1],,,8,74,3,26,5,1-4[8:1],5-8[8:1],1,5,,
{8}2-5[8:1],6<4[4:1],2,6,,,{24}5,6,7,{8}8w4[8:1],,8b,,
{8}2h[8:1],5h[8:1],4h[8:1],7h[8:1],1h[8:1],6h[8:1],3h[8:1],8h[8:1],
{8}2h[2:1],,,1,8,7,6,5-1[8:1],,5<3[8:3],,5,,,,,
{16}8,7,62,,3,,45,,6,,37,,2,,18,,{4}1b-3[8:1]/8b-6[8:1],1b-5[8:1]/8b-4[8:1],1b/8b,C,
{12}2x,4,3,7,5,6,2x,1,3,7,8,6,2x,1,2,7,8,7,3x,4,3,6,5,6,
{8}4-8[8:1],,,7-3[8:1],,,2<3[8:4],,,,,,{24}E6,E7,E8,E4,E3,E2,C,,,,,,
{8}3h[4:1],4,6h[4:1],5,1h[4:1],,8h[4:1],,
{8}1>4[4:1],,4<7[4:1],,7>2[4:1],,2>5[4:1],,5<4[2:1],,,,Ch[2:1],,,,1,1w5[8:1],,1b,,,,,
{4}6h[4:6],4,3,4,2h[1:1],,,6,{8}6x<3[4:3],,,4,,,5,,6x<3[4:3],,,4,,,5,,
{4}6h[4:8],4,3,4,2h[4:2],,,2,{8}2x>7[4:3],,,8,,,1,,2x>7[4:3],,,8,,,1,,
{4}2,13,84,75,6h[4:3],,,2,12,34,56,78,1-5[8:3]/2-6[8:3],,,
{4}7h[4:1],1h[4:1],8h[4:1],4h[4:1],5h[4:1],3h[4:3],,,
{8}7h[1:1],,3,,,2,,,1w5[8:1],,1b,,,,,,,,
{8}E2,B8,B4,E6,B1,E8,E4,B5,E2,B8,B4,E6,B1,E8,E4/B5,,
{8}E7,E3,E1,E5,E8,E4,E6,E2,Ch[2:1],,,,,,,,
{8}E2,B8,B4,E6,B1,E8,E4,B5,E2,B8,B4,E6,B1,E8,E4/B5,,
{8}2x-5[8:1],,8,7x-4[8:1],,1,2x-6[8:1],,8,7x-3[8:1],,1,1,,7b/2b,,
{8}1,8>4[4:1],7,6,5,,B7/B6,B7/B6,,2,2,8,3h[4:1],,,,
{8}7-4[8:1],1-5[8:1],7,1,6<4[4:3],,2,2h[8:5],,,,,,,,,
{8}8,1<5[4:1],2,3,4,,B2/B3,B2/B3,,81,81,7,6h[4:1]/3h[4:1],,,,
{24}8/3,7,6,5,,,,,,1/6,2,3,4,,,,,,E2/E8,E3/E7,E4/E6,E5,,,,,,
{8}63,2-5[8:1]/7-4[8:1],,2b/7b,,,,
{8}87,6,4,35,7,1,62,4,65,7,2,48,7,6,25,3,54,6,1,73,2,8,61,5,
{8}3h[8:5],8,7,6,,{16}B5,B6,B7,B8,B1,,{8}2x,6,4,73,8,1,24,3,64,7,81,72,,4,5,4,
{8}6h[4:1]/5h[4:1],,,4h[4:1]/3h[4:1],,,7h[4:1]/5h[4:1],,,4h[4:1]/2h[4:1],,,1/8bw4[8:1],,,,
{4}6qq1[2:1],2,3,2,3pp8[2:1],7,6,7,7p3[4:1],1,2q6[4:1],8,7,81,2h[4:1],,
{4}6-1[4:1],4,3-8[4:1],5,6h[4:1],8h[4:1],1h[4:1],3,
{16}5x-1[16:3]/4x,,,3,,,2,,,,,,5x-1[16:3]/4x,,,3,,,2,,,,,,
{24}1b/8b,2b/7b,3b/6b,4b/5b,,,
E
