&title=熱風(セカイver.)
&artist=kemu
&first=0
&des=NaTsuYu
&wholebpm=192
&des_5=NaTsuYu
&lv_5=14
&inote_5=(192)
{16},,,,,,,,
{16},,,,,,,,
{16}E4/E6,,B6,,B7,,E8,,
{16},,,,,,,,
{16}E4/E7,,B7,,B8,,E1,,
{16},,,,,,,,
{16}E4/E6,,B6,,B3,,B7,,
{16}B2,,E8,,E2,,,,
{16}E3/E6,,B2,,B6,,B1,,
{16}B7,,,,,,,,
{16}E6/E4,,B3,,B2,,E2,,
{16},,,,,,,,
{16}E6/E3,,B2,,B1,,E1,,
{16},,,,,,,,
{16}E6/E4,,B3,,B6,,B2,,
{16}B7,,E2,,E8,,C,,
{16}E6/E4,,,,,,,,
{16},,,,,,,,
{16}3/E6,,B6,,3/B7,,B8,,
{16}3/E1,,,,3,,,,
{16}3/E1,,B8,,3/B7,,B6,,
{16}3/E6,,,,3,,,,
{16}3/E6,,B6,,3/B7,,B8,,
{16}3/E1,,,,3,,,,
{16}3/E1,,,,3/B7,,B6,,
{16}3/E6,,,,3,,,,
{16}6/E4,,B3,,6/B2,,B1,,
{16}6/E1,,,,6,,,,
{16}6/E1,,B1,,6/B2,,B3,,
{16}6/E4,,,,6,,,,
{16}6/E4,,B3,,6/B2,,B1,,
{16}6/E1,,,,6w2b[16:2],,,,
{16}6bx,,,,,,,,
{16}1,2,8,3,7,4,6,5,
{16}4bx/7bx>2q3<6b[16:16],,,,,,,,
{16},,,,,,,,
{16},,,,1bxp8b[16:8],,,,
{16},,,,,,,,
{16}3bx<6q7>2b[16:16],,,,,,,,
{16},,,,,,,,
{16},,,,5bxp4b[16:8],,,,
{16},,,,,,,,
{16}6bx<6b[16:16],,,,,,,,
{16}D1f,A1f,D2f,A2f,D3f,A3f,D4f,A4f,
{16}D5f,A5f,D6f,A6f,2bxz6b[16:2],,,,
{16},,7bxs3b[16:2],,,,,,
{16}1bx>1b[16:10],,,,,,,,
{16}5bx-1b[16:2],,,,,,,,
{64}2/7,,,,,,,,
{64},3,4,,,,,,
{64},,,,4,5,,,
{64},,,,,,,5,
{12}6,7,5,6,4,5,
{16}3-1[16:2],,,,3,,7-5[16:2],,
{16},,4-8[16:2]/7,,,,4,,
{16}5,4,3,2,1-4[16:2],,,,
{16}1,,5-8[16:2],,,,5,,
{16}4>2[16:2],,,,4,,8<6[16:2],,
{16},,5-1[16:2]/8,,,,5,,
{16}4,5,6,7,8-5[16:2],,,,
{16}8,,4-1[16:2],,,,,,
{16}5h[16:20],,,,,,,,
{16},,,,,,,,
{16},,,,1h[16:12],,,,
{16},,,,,,,,
{16}5w1[16:12],,,,,,,,
{16},,,,,,,,
{16},,,,2-5[16:2]/7-4[16:2],,,,
{16}2/7,,,,,,3/6,,
{16}1b/8b,,,,1x,2x,3x,8x,
{16}1x,2x,7x,8x,1x,6x,7x,8x,
{16}1x-5[16:2],,,,1/7-3[16:2],,,,
{16}2-6[16:2]/7,,,,2/6,,7,,
{16}1b/8b,,,,8x,7x,6x,1x,
{16}8x,7x,2x,1x,8x,3x,2x,1x,
{16}8x-4[16:2],,,,8/2-6[16:2],,,,
{16}7-3-5-7[16:8]*-3-5-7[16:8]/2,,,,7/3,,,,
{16},,,,2-5-8[16:6],,2,,
{16},,,,6-1-4b[16:6],,6,,
{16},,,,3z7s3[16:12],,3,,
{16},,,,5h[16:12],,,,
{16},,,,,,,,
{16}1-4[16:2],,,,1x/5-8[16:2],,,,
{16}3-6[16:2]/5x,,,,3x/7-2[16:2],,,,
{16}2-5[16:2]/7x,,,,2x/6-1>8[16:8],,7,,
{16}8h[16:8],,,,,,,,
{16}D1f,,,,,,1/6,,
{16}3v8[16:2]/4,,,,3,,7v4[16:2],,
{16},,,,1w5[16:2],,,,
{16}1,,,,7-4[16:2],,8,,
{16}1/7,,,,3-8[16:2],,4,,
{16}5<8[16:2]/3,,,,5,,1>4[16:2],,
{16},,1,,8h[16:11],,,,
{16},,,,5h[16:7],,,,
{16}7h[16:7],,,,4h[16:7],,,,
{16}6h[16:7],,,,3h[16:7],,,,
{16}5h[16:7],,,,2h[16:7],,,,
{16}4>5[16:12],,,,,,1,,
{16}1h[16:8],,,,,,,,
{16},,,,2-7[16:2]/4-8[16:2],,,,
{16}2/4,,,,,,1/6,,
{16}3b/4b,,,,1x,5x,6x,2x,
{16}6x,7x,3x,7x,8x,4x,8x,1x,
{16}5x-2[16:2],,,,6/5-8[16:2],,,,
{12}5/1h[16:2],,7/2h[16:2],,8/3h[16:2],,
{16}1b/4b,,,,8x,4x,3x,7x,
{16}3x,2x,6x,2x,1x,5x,1x,8x,
{16}4x-7[16:2],,,,3/4-1[16:2],,,,
{16}4<8q1[16:8]/5,,,,3/4,,,,
{16},,,,8>4[16:4],,8,,
{16},,,,5p4[16:4],,5,,
{16},,,,1>8[16:8],,1,,
{16},,5-8[16:2],,5,,,,
{16},,,,,,,,
{16}2h[16:7],,,,5h[16:7],,,,
{16}3h[16:7],,,,6h[16:7],,,,
{16}4h[16:7],,,,7h[16:4],,,,
{16}5<4[16:12],,,,,,,,
{16},,,,8qq5[16:12],,8,,
{16},,,,,,,,
{16},,,,1p4[16:4],,1,,
{16},,,,,,,,
{16}7h[16:7],,,,4h[16:7],,,,
{16}6h[16:7],,,,3h[16:7],,,,
{16}5h[16:7],,,,2h[16:4],,,,
{16}4>5[16:12],,,,,,,,
{16},,,,1q4[16:8],,1,,
{16},,,,,,,,
{16}8<5[16:4],,,,,,,,
{16}4>1[16:4],,,,,,,,
{24}D1,A8,D8,A7,D7,A6,D6,A5,D5,A4,D4,A3,
{16}D3,,,,1-6[16:2]/8-3[16:2],,,,
{16}1/8,,,,,,4/5,,
{16}2h[16:8]/7,,,,,,,,
{16}1h[16:6],,,,,,8h[16:2],,
{16}7h[16:16],,,,,,,,
{16}2-4[16:2],,,,2-5[16:2],,,,
{16}2-6[16:2],,,,2-7[16:2],,,,
{16}2-8[16:2],,,,2<5p4[16:10],,,,
{16},,,,,,,,
{16}8h[16:4],,,,3h[16:4],,,,
{16}7h[16:8],,,,,,,,
{16}2h[16:8],,,,,,,,
{16}6h[16:4],,,,1h[16:4],,,,
{16}7h[16:4],,,,2h[16:4],,,,
{16}6h[16:16],,,,,,,,
{16}3,,,,,,,,
{16}2h[16:16],,,,,,,,
{16}7-5[16:2],,,,7-4[16:2],,,,
{16}7-3[16:2],,,,7-2[16:2],,,,
{16}7-1[16:2],,,,7-1-3-5v4[16:8],,,,
{16}7,,,,,,,,
{16},,,,B4,B5,B3,B6,
{16}E3/E7,,,,4/5,,,,
{16}4,5,4,5,4,5,3,6,
{16}3,6,3,6,2,7,2,7,
{16}2,7,1,8,1,8,1,8,
{16}1bxw5b[48#64:2]/8bxw4b[48#64:2],,,,,,,,
{16},,,,,,,,
{16}B2/B3/B6/B7/Cf,,,,,,,,
{16},,,,,,,,
{16},,,,,,,,
{16},,,,,,,,
{16},,,,,,,,
{16},,,,,,,,
{16},,,,,,,,
{16},,,,,,,,
{16},,,,,,,,
{16},,,,,,,,
{16},,,,,,,,
{16},,,,,,,,
