&title=Ignotus
&artist=ak+q
&first=0
&des=暁
&lv_5=13
&inote_5=(170)
{1},
4>5[4:14]/5b,
,
,
{16}4h[16:3],,,,4h[8:1],,,4h[4:1],,,,,4-1[8:1],,4,,
3>5[4:7],,,,,,,,,,,,,,,,
,,,,,,,,,,,,,,4>5[8:15],,
4-1[8:1],,,,,,,,,,,,,,,,
,,,,,,,,,,,,4-1[8:1],,,,
4>5[4:7],,,,,,,,,,,,,,,,
,,,,,,,,,,,,,,,,
4-1[8:1]*>6[4:4],,,,,,,,,,,,,,,,
,,,,4,5,4,,6-3[8:1],,5,,4,,,,
2-5[8:1]/5-8[8:1],3,4,,25,,,,7/5v3[8:1],,8V64[8:7]/4,,,,,,
3h[4:1],,,,,,2h[4:1],,,,,,1h[4:1],,,,
3<1[4:3],,,,1,,,2,,,3,,,,,,
4h[4:1],,,,,,3h[4:1]/5h[4:1],,,,,,26,,,,
7-4[8:1]/4-1[8:1],6,5,,74,,,,2/4v6[8:1],,1V35[8:7]/5,,,,,,
6h[4:1],,,,,,7h[8:1],,,,7,,8h[4:1],,,,
6,7,6,,5,6,5,,4,5,4,,3,4,3,,
2-5[8:1]/5,,,,25,,7-4[8:1],,,,75,,1w5[8:1],,,,
1b>8[4:6],,,,,,,,,,,,,,,,
1,,,,,,,,1,,,2,,,3,,
4qq7[4:6],,,,7,,7,,,,6,,,,5,,
5h[4:1],,,,,,,,4,,,3,,,2,,
1qq3[4:6],,,,6h[8:3],,,,,,,,,,5,,
5h[4:1],,,,,,6h[4:1],,,,,,7,,,,
8pp7[4:3],,,,,,4,,,,5,,,,4,,
4pp8[8:4]*qq8[8:4],,,,,,,,,,,,,,,,
26,,,,3,,5,,3,,4,,3,,,,3,,4,,3,,5,,3-5[8:1],,6,,3,,,,
73,,,,6,,4,,6,,5,,6,,,,6,,5,,6,,4,,5-1[8:1],4,5,,3,,3,,
6/2-4[8:1],,,,25,,5,,2-8[8:1]/6,,6,,7-5[8:1]/2,,,,
78,,,,1-3[8:1]/7-1[8:1],,3V16[8:2],,1-4[8:1]/7,,,,,,,,
25,,4,,3,,47,,5,,6,,45,,36,,
{32}4,3,2,1,8,7,6,5,4,3,2,1,8,7,6,5,
{16}4h[384:1]/8h[384:1],3h[384:1]/7h[384:1],2h[384:1]/6h[384:1],5h[384:1]/1h[384:1],
8h[384:1],7h[384:1],6h[384:1],5h[384:1],
8w4[8:1]/4,,,,8,,,,2-4[8:1]/6-8[8:1],,35,,2-6[8:1]/6,,,,
8<5[8:1]/2,,7,,8/4>1[8:1],,3,,6v8[8:1]/4-8[8:1],,5,,,,,,
1>4[8:1],,4<7[8:1],,1,,7,,8-4[8:1],,4-8[8:1],,8,,3,,
2,,13,,84,,57,,6,5,4,3,2,1,8,7,4,5,4,5,3,6,3,6,2,7,2,7,1b-5[8:1],,,,
1w5[8:1]/8,,,,1,,,,7-5[8:1]/3-1[8:1],,64,,7-3[8:1]/3,,,,
1>4[8:1]/7,,2,,1/5<8[8:1],,6,,4>1[8:1]/5,,3,,8-4[8:1]/4,,7,7,
8<5[8:1],,,,8,,3>8[8:1],,,,3,,5-1[8:1],,,,
5/6-4[8:1],,,,16,,2-6[8:1],,,,27,,8-2[8:1],,,,
4-8[8:1]/8,,,,4/7,,6-4[8:1],,,,16,,2-6[8:1],,3,,
2/7-3[8:1],,,,5/7,,4-1[8:1],,,,54,,6<4[8:2],,,,
1b,,,,5h[8:1],,6,5,6-3[8:1],,5,,4,,,,
4/2-5[8:1],,,,82,,7-3[8:1],,,,72,,1-7[8:1],,,,
5-1[8:1]/1,,,,5/2,,3-5[8:1],,,,83,,7-3[8:1],,,,
5pp8[4:6]*qq2[4:4],,,,,,,,,,,,,,,,
,,,,,,,,2h[4:1],,,,,,,,
{1}3>3[4:14]*<3[4:14],,,,
{16}3h[8:5],,,,4,,,4,,,4,3h[16:3],4h[16:2],,,,
3h[8:3]/4h[4:1],,,,,,4h[8:3],,,,,,3h[4:1],,,,
6h[8:3],,,,5h[8:2],,,,6,,5,,6,5,6,,
4,5,4,,4,3,4,,4,2,4,,4-8[8:1],1,4,,
4bV62[4:2]/8V26[4:2],,,,,,,,,,,,,,,,
1>7[2:1]/7,,,,,,,,,,,,4w8[8:1],,,,
4b,,,,2-6[8:1]/6,,35,,2/6-4[8:1],,,7,6pp3[8:6],,7,,
3,,,,2,,2,,,,1,,1<2[4:2],,,,5pp1[4:3],,,,,,,,,,,,,,,,
2-5[8:1],,,,12,,7-4[8:1],,,,78,,1w5[8:1],,,,
,,,,7-1[8:1]/3-5[8:1],,26,,7-3[8:1]/3,,,,7/2-6[8:1],,,,
2/5<4[4:2],,,,,,4,,5,,6,,7,,8,,
15,,8,4,7,,3,,26,,15,,8<5[8:1]/4,,,,
8>3[8:1],,,,8,,,,8w4[8:1],8,8,8,8,,,,
26,,,,7-3[8:1]/3,,64,,7/3-5[8:1],,,2,3qq4[8:4],,2,,
6,,,,5,,6,,7,,8,,1>7[4:2],,2,,4qq8[4:3],,,,,,,,,,,,,,,,
7-4[8:1],,,,87,,2-5[8:1],,,,21,,8w4[8:1],,,,
,,,,2-8[8:1]/6-4[8:1],,73,,2-6[8:1]/6,,,,2/7-3[8:1],,,,
7/4>5[4:2],,,,,,5,,4,,3,,2,,1,,
84,,1,5,2,,6,,73,,84,,1>4[8:1]*<6[8:1]/5,,,,
1w5[8:1],,,,1,,,,1w5[8:1],1,1,1,1,,,,
37,,6,4,5,4,6h[8:1],,5,7,4,6,3,5,2,4,
1,3,2,4,3,5,1,4,2-6[8:1],5,3,6,2,,,,
7,5,6,4,5,3,7,4,6,3,5,2,8,4,7,3,
6,2,5,1,6,2,7,3,8-4[8:1],4,6,2,8,,,,
62,,3,5,4,5,3h[8:1],,4,2,5,3,6,4,7,5,
8,6,7,5,6,4,8,5,7-3[8:1],4,6,3,7,,,,
2,4,3,5,4,6,2,5,3,6,4,7,1,5,2,6,
3,7,4,8,3,7,2,6,1-5[8:1],5,3,7,1,,,,
6,5,6,5,7,,2,1,2,1,3,,8,7,6,5,
3,4,3,4,2,,7,8,7,8,6,,1,2,3,4,
6,5,6,7,6,,2,1,2,1,3,,8,7,6,5,
3,4,3,2,3,,7,8,7,8,6,,1,2,3,4,
7,5,6,4,5,3,6,5,5,4,4,3,5,2,6,1,
7,5,6,4,5,3,6,5,5-8[8:1],4,4,3,5,,,,
2,4,3,5,4,6,3,4,4,5,5,6,4,7,3,8,
2,4,3,5,4,6,3,4,4,5,5,6,4-1[8:1],4,4,4,
{1}4b>5[4:15],,,,
{8}3h[16:1],4h[16:1],5h[16:1],6h[16:1],2h[16:1],3h[16:1],4h[16:1],5h[16:1],
1h[32:1],2h[32:1],3h[32:1],4h[32:1],8h[32:1],1h[32:1],2h[32:1],3h[32:1],
7h[64:1],8h[64:1],1h[64:1],2h[64:1],6h[384:1],7h[384:1],8h[384:1],1h[384:1],
5,6,7w3[8:1],,
