&title=ババロア (Bavaroa) (Tom Remix)
&artist=TAK / 初音ミク/Tom
&first=0.08
&des=黄土猫四娘 豆包帮我生成一个300字的小作文
&lv_5=13+
&inote_5=(192){1},,,,
{8},,
{8}4h[8:6]/1,,1,,2,,1,,
8h[8:6]/5,,5,,6,,5,,
{8}4h[8:6]/1,,1,,2,,1,,
8h[8:6]/5,,5,,6,,5,,
{8}4h[8:6]/1,,1,,2,,1,,
8h[8:6]/5,,5,,6,,5,,
{8}35,42,31,,86,75,64,,
{8}4,3,3,4,6>3[8:1],6,7b,,
{8}2h[8:1],,2h[8:1],,2h[8:1],,2h[8:1],,
{8}1h[8:1],,1h[8:1],,1h[8:1],,1h[8:1],,
{8}7h[8:1],,7h[8:1],,7h[8:1],,7h[8:1],,
{8}8h[8:1],,8h[8:1],,8h[8:1],,8h[8:1],,
{8}7>2[16:3],,3h[8:2],,4h[8:2],,5h[8:2],,6h[8:2],,7h[8:2],,8h[8:2],,1h[8:2],,2h[8:8],,,,7h[8:4],,,,,1,1,27,8,8,
{8}2b/7bqq4[8:6],,1,,2,,3,,3qq8[8:6],,8,,7,,6,,6,,
{8}7b/2bpp5[8:6],,8,,7,,6,,6pp1[8:4],,1,,2,,3,3,38,21,38,21,3-1[8:1]/8,,
{8}43,5,78,16,78,16,25,34,25,34,2b-5[8:1]/5,,6b-1[8:1],,2,3,21,83,4h[8:1],,7h[8:1],,
{8}4b-1[8:1]/5b-8[8:1],,4b/5b,,
{8}1>7[8:2],2,3,,2>8[8:2],3,4,,3<1[8:2],4,5,,2,2,3,3,
{8}8<2[8:2],7,6,,7<1[8:2],6,5,,6>8[8:2],5,4,,7,7,6,6,
1,7,4,8,2,6,
3,7,{4}2/1<3[4:1],{8}3,2,1,1,
8,8,4,6,2,8,1,6,
3,7,8/5,1/4,{4}2/3,{8}8/5,1/4,
{4}2/3,5h[8:1],5-2[8:1],3h[8:1],
3-7[8:1],6h[8:1],6<3[4:1],2h[4:1],
,4h[8:1],4-7[8:1],6h[8:1],
6-2[8:1],3h[8:1],3-8[8:1],{8}3/7,6,
5,4,1/5,2,{16}3,4,3,4,{4}2h[8:1],
{16}6,5,6,5,{4}7h[8:1],{16}2,1,{8}2,8-4[8:1],7,
6,5,{16}3,4,{8}3,{16}6,5,{8}6,{16}2,1,{8}2,
{16}7,8,{8}7,8/5,1/4,{4}2/3,{8}5/8,1/4,
{4}3/2,7/8h[2:1],{2}7>6[16:6],
{4},{12}2/1h[2:1],,2<3[8:3],,2,{24},,,,,{8}1,
{4},7/8h[2:1],{2}7>6[16:6],
{4},{8}2/1h[2:1],2<3[8:3],{12},2,{24},,,,,{8}1,
8,7,{16}6,5,{8}6,{16}3,4,{8}3,{16}6,5,{8}6,
{16}3,4,{8}3,{4}5-1[12:1]/4-8[12:1],5b/4b,{8}1/5,2/6,
3/7,4/8,{4}5/7-4[8:1],7/2-5[8:1],2/6-1[8:1],
6/3-8[8:1],{8}5/3,4,{4}3,{8}8/5,1/4,
{4}2b/3b,5h[8:3],{2},5p4[2:1],
{4}6,6-2[4:1],
,1h[8:3],{2},7p5[2:1],
{4}3,3p6[4:1],
,4h[8:3],{2},4q5[2:1],
{4}3,3-7[4:1],
,{8}8,8,8,8,8,7,
6,5,{4}5/4,2/7,6/3,
4h[4:7],7,{8}7,{4},{8}7,
6,7,,6,{4}7,7,
5h[4:7],2,{8}2,{4},{8}2,
3,2,,3,{4}2,2,
{8}4h[1:1],5,5,6,5,6,{4}5,
{8}5h[4:3],4,3,4,3,4,2,3,
2,3,{4}27,6/3,{8}2,3,
4,5h[8:5],{2},
{4}4-8[8:1],,
{16}6,,,,
35,,35,,7,,,,
24,,24,,
{16}4,5,3,6,2,7,1,8,
{8}18,18,18,18,1h[8:10]/8h[8:10],{8},,,,,,,,,,,
{8}45,4-8[8:1]/5-1[8:1],,4b/5b,
{8},2,1/8-4[8:1],7,8/1-5[8:1],2,1/8-4[8:1],7,18,,8>4[8:2],,4<8[8:2],,6,6,5b>2[8:2],,
{8}2<7[8:2],,7<4[8:2],,4>8[8:2],,8<4[8:2],,4>8[8:2],,8<4[8:2],,4,,3-6[8:1]*-8[8:1],,,,6-3[8:1]*-1[8:1],,,,
{16}4,5,4,5,3,6,2,7,1,8,1,8,
{16}1-5[8:1],,,,1b/8b,,6,4,7-3[8:1],,8,,7,,2,4,1-4[8:1],,5,,1-6[8:1],,,,1>4[8:1],,,,1<6[8:1],,,,
{16}5-1[8:1],,,,5b/4b,,2,8,3-7[8:1],,4,,3,,6,8,5-8[8:1],,1,,5-2[8:1],,,,5<8[8:1],,,,5>2[8:1],,,,
{8}5,6,73,28,73,28,73,,
{8}4,3,71,62,71,62,18,72,18,72,3b-8[8:1]/6b,,3b/7b-4[8:1],,8b/7b,1b,2b,3b,4h[8:1],,4h[8:1],,5b/8b,4b/1b,2b/3b<1[8:2],,
{8}3b/1b,,5>7[8:2],,5b/7b,,3<1[8:2],,3b/1b,,5qq1[8:2]*pp1[8:2],,5b,,
{16},,2,3,{8}4b>6[8:2],,64,,4b<2[8:2],,24,,4b>6[8:2],,64,,4,5,6,7,
{8}8-4[8:1],,1-5[8:1],,2-6[8:1],,3-7[8:1],,4-8[8:1],,5b/4b,,
{8}7,6,5,4,3-7[8:1],3,2-6[8:1],2,1-5[8:1],1,8,8,5b/8b,4b/1b,2b/3b,,5b/8b,4b/1b,2b>6[8:2]/3b,,
{8}6<2[8:2],,2>6[8:2],,6<2[8:2],,2>7[8:2],,7<2[8:2],,2>7[8:2],,7<2[8:2],,2,,
{8}1<5[8:2],,5>1[8:2],,1<5[8:2],,5>1[8:2],,1>6[8:2],,6>1[8:2],,1,8,7,6,52,78,52,78,52,,3,4,45,27,45,27,18,36,18,36,
{8}1b-4[8:1]/8b,,5b-8[8:1]/1b,,1b/5b,2b,1b/8b,2h[24:20]/7h[24:20],,,,,,,
{24}3,4,5,6,7,8,
{8}1h[8:18],,5,,5,5,,5>5[8:9],{1},{8},,,,18,81,81,81,
