&title=童遊
&artist=めらみぽっぷ
&first=0
&des=夜梨
&lv_5=12
&inote_5=(124)
{1},{16}
,,,,,
4h[4:2],,,,,,,,5h[4:2],,,,,,,,
6p5[4:2],,,,,,,,,,,,,,,,
3h[4:2],,,,,,,,2h[4:2],,,,,,,,
1p8[4:2],,,,,,,,,,,,,,,,
3h[4:1],,,,,,,,4h[4:1],,,,,,,,
5h[4:1],,,,,,,,3h[4:1]/7h[4:1],,,,,,28,,
1>4[4:1]/8,,,,,,,,5<8[4:1],,,,,,,,
1h[4:2],,,,,,,,8,,71,,26,,45,,
3bqq5[4:6]/6pp4[4:6],,,,,,,,,,,,,,,,
,,,,,,,,,,,,,,,,
1s5[4:3],,,,,,,,,,,,,,,,
8z4[4:3],,,,,,,,,,,,,,,,
2h[4:1],,,,,,1,,2h[4:1],,,,,,3,,
4h[4:1],,,,,,3,,4h[4:1],,,,,,5,,
6q4[8:5]*<4[8:5],,,,,,,,,,,,,,,,
5h[4:1],,3,,3p6[8:3],,5,,,,,,,,,,
2h[4:1],,,,,,3,,4h[8:1],,,,5,,5h[4:1],,
,,,,6,,7,,7h[4:1],,,,,,,,
2>5[8:1]/6<1[8:1],,,,,,,,25,,36,,47,,4qq6[8:5]/7pp5[8:5],,
,,,,,,,,,,,,,,,,
7z3[4:2],,,,6,,,,5,,,,,,,,
8p1[4:2],,,,6,,,,5,,,,,,,,
2-4[4:1],,,,4-8[4:1],,,,8-6[4:1],,,,,,,,
1>7[4:2],,,,,,,,,,,,,,,,
2>6[4:1],,,,,,,,7>3[4:1],,,,,,,,
5s1[4:2],,,,2h[4:2],,,,,,,,,,,,
3>7[4:1],,,,,,,,6>2[4:1],,,,,,,,
8z4[4:2],,,,3h[4:2],,,,,,,,,,,,
2>5[4:1],,,,,,,,6<1[4:1],,,,,,,,
4z8[4:2],,,,,,,,,,,,,,,,
1qq6[4:4]/2pp5[4:4],,,,,,,,,,,,,,,,
,,,,,,,,34,,35,,36,,37,,
1>4[8:1]/8,,7,,16,,,,1>4[8:1]/6,,7,,18,,,,
4>1[8:1]/8,,7,,46,,,,1v3[8:1]/5v7[8:1],,,,,,,,
5<8[8:1]/4,,3,,52,,,,5<8[8:1]/2,,3,,54,,,,
8<5[8:1]/4,,3,,82,,,,1w5[8:1],,,,,,,,
2>5[8:1]/6,,7,,28,,,,25,,6,,27,,8-4[8:1],,
,,,,,,3,,2/6<1[8:1],,3,,4/6z2[4:3],,,,
4h[4:3],,,,,,,,,,,,,,,,
7b/8b,,,,6,5,6,,3,4,3,4,3,,18,,
2-4[8:1]/6h[4:1],,,,,,,,2-4[8:1]/6,,,,27,,8,,
2>5[8:1]/6h[4:1],,,,,,7,,8h[4:1]/2>5[8:1],,,,,,7,,
6>3[8:1]/1h[4:1],,,,,,,,2q6[8:1]/7h[4:1],,,,,,,,
2<7[8:1]/6h[4:1],,,,,,,,1-4[8:1],,,,16,,8,,
7-5[8:1]/3h[4:1],,,,,,,,7-5[8:1]/3,,,,72,,1,,
7<4[8:1]/3h[4:1],,,,,,2,,1h[4:1]/7<4[8:1],,,,,,,,
3<6[8:1]/8h[4:1],,,,,,,,7p3[8:1]/2h[4:1],,,,,,,,
26,,,,48,,,,25,,6,,3/8<5[8:1],,4,,
38,,,,4V25[4:1]/5,,6,,4/5-1[8:1],,,,6,,7,,
8p4[8:1],,,,38,,2,,18,,,,25,,6,,
47,,6,,45,,3,,25,,3,,45,,6,,
7h[4:1],,4,,2h[4:1],,5,,6>3[8:1],,,,,,,,
1/2h[4:2],,,,5,,6,,7h[4:2],,,,4,,3,,
2q6[8:1],,,,28,,,,7p3[8:1],,,,17,,1,,
2V48[4:1],,,,5,,6,,7V51[4:1],,,,4,,3,,
3<6[4:1],,,,6>3[4:1],,,,8b,,,,6,,7,,
61,,,,5V74[4:1]/4,,3,,5/4-8[8:1],,,,3,,2,,
1q5[8:1],,,,61,,7,,18,,,,74,,3,,
52,,3,,54,,6,,74,,6,,54,,3,,
2h[4:1],,5,,7h[4:1],,4,,3<6[8:1],,,,,,,,
8/7h[4:2],,,,4,,3,,2h[4:2],,,,5,,6,,
7p3[8:1],,,,71,,,,2q6[8:1],,,,82,,8,,
7<4[8:1],,,,1-5[8:1],,,,7-4[8:1],,,,3>8[8:1],,,,
7,,,,45,,,,36,,2,,47,,8,,
1q6[8:1],,,,18,,,,8p3[8:1],,,,81,,,,
46,,7,,8,,,,35,,2,,1,,,,
45,,3,,6,,4,,7h[4:1],,,,1,,6,,
54,,6,,3,,5,,2h[4:1],,,,7-2[8:1],,,,
3-6[8:1],,,,8-5[8:1],,,,4-1[8:1],,,,7h[4:1],,,,
6h[4:1],,,,5,,6,,4h[4:1],,,,5,,,,
54,,6,,3,,5,,2h[4:1],,,,8,,3,,
45,,3,,6,,4,,7h[4:1],,,,2-7[8:1],,,,
6-3[8:1],,,,1-4[8:1],,,,5-8[8:1],,,,2-7[8:1],,,,
6-3[8:1],,,,1-4[8:1],,,,5-8[8:1],,,,2-5[8:1],,,,
6-1[8:1],,,,3-8[8:1],,,,7-4[8:1],,,,2-5[8:1],,,,
6-1[8:1],,,,3-8[8:1],,,,7-4[8:1],,,,3,,2,,
1>4[8:1],,,,6,,7,,25,,6,,47,,3,,
25,,6,,47,,3,,25,,,,45,,6,,
7<4[8:1]/3>8[8:1],,,,,,,,48,,7,,26,,3,,
48,,7,,26,,3,,1>4[8:1]/5<8[8:1],,,,1bqq6[1:3]/5bqq2[1:3],,,,
,,,,,,,,,,,,,,,,
,,,,,,,,,,,,,,,,
,,,,,,,,,,,,,,,,
,,,,,,,,,,,,,,,,
,,,,,,,,,,,,,,,,
,,E
