&title=Check the hartmann
&artist=ACTRock feat. 小春六花
&first=0
&des=ハート知りたい
&clock_count=4
&lv_5=13+
&inote_5=(170)
{1},
||intro
{8}6,,6,,6,6,6>6[8:6],6p2[8:2],
{8},,,,,,,,
{8}4xq7[8:4]/2hx[8:6],,,,,,,,
{8}8xp5[8:4]/1hx[8:6],,,,,,,,
{8}5xV37[8:4]/4xV62[8:4],,,,,,,,
{16}1,8,2,7,3,6,4,5,2x-6[8:1],,,,2b/6b,,,,
{8}5xp2[8:4]/7hx[8:6],,,,,,,,
{8}1xq4[8:4]/8hx[8:6],,,,,,,,
{8}4xV62[8:4]/5xV37[8:4],,,,,,,,
{16}8,1,7,2,6,3,5,4,7x-3[8:1],,,,7b/3b,,,,
||verse1.1
{8}E2,,E1/B3,,E8/B2,,E7/B1,,
{8}E6,,E5/B7,,E4/B6,,E3/B5,,
{8}8x,,B5/B3,,4x,,B1/B7,,
{8}3x/5x,,C,,1x/7x,,C,,
{8}6,4,5,3x,7<4[8:1],2x,7,1x-5[8:1],
{8},,8,,7-4[8:1],,8x,,
{8}2>5[8:1],,,{16}8x-4[8:2],7x,{8}6x,,,5,
{8},6,6/3,6,5-8[8:1]/6-1[8:1],,5b/6b,,
||verse1.2
{8}2,,2x/B5,,2/8,,2x/C,,
{8}6,,6x/B1,,6/4x,,6x/C,,
{8}7-4[8:1],,B2,,1-4[8:1],,B6,,
{8}8<5[8:1],,C,,2>5[8:1],,C,,
{8}7,6,4x/5x,3,2x-5[8:1],7,2x,8p4[6:1],
{8},,1x,,2v5[8:1],,1x,,
{8}7<4[8:1],,,{16}1xp5[8:2],2x,{8}3x,,,4,
{8},3,3/4,3,3-8[8:1]/6-1[8:1],,3b/6b,,
||verse2.1
{8}2x>4[8:1],,,,5x-7[8:1],4,3,,
{8}4x>2[8:1],5,6,,5x<7[8:1],4,3,,
{8}8x-3[8:1],1,2,,1x-6[8:1],8,7,,
{8}8x<5[8:1],4,8,,3x>1[12:1]/4x-8[8:1],,3x/4x,,
{8}7x<5[8:1],,,,4x-7[8:1],5,6,,
{8}5x-1[8:1],4,3,2,8x,7,5/6,,
{8}4,5,6x,2,3,7,6x,1xh[8:1],
{8}8,,7h[8:1]/5x,,3h[8:1]/4,,2x/6x,,
||buildUp1.1
{8}3,4/6,5,3/6,4,3/5,6,4/5,
{16}3,6,3,6,2,7,2,7,1-5[8:1],8,1,8,1x,,,,
||chorus1.1
{8}6,4,3/5,2,7,1/8,2,{16}7,6,
{8}5-1[8:1]/4,,3b/5x,,4<7[8:1],,2b/4x,,
{8}1,8,7/5,6,3,4,2/8,1,
{8}7-4[8:1]*-5[12:1],,7>6[8:2],,7x/Cf,,,{16}1x,2x,
{8}3x,5,4/6,7,1,8,3/7,5,
{8}4-2[12:1],6-4[12:1],4-8[8:1],6,1x-5[8:1],,1b/7b,,
{8}6,4,3/8,7,1,5,4/6,3,
{8}8-6[12:1],2-8[12:1],8-4[8:1],2,5w1[8:1],,5x,,
||chorus1.2
{8}7,4,3/5,6,2,8/1,7,{16}2,3,
{8}4-7[8:1]/5,,4x/6b,,5-1[8:1],,5x/7b,,
{8}8,2,3/4,5,1,7,5/8,6,
{8}3-1[12:1]*-6[8:1],,3qq5[8:2],,Cf/3x,,,{16}6x,7x,
{8}8x,4,3/5,1,7,2,3/8,6,
{8}4-2[12:1],7-4[8:1],4-8[8:1],7,1x-3[8:1]*-6[8:1],,1b,,
{8}5,4,3/7,6,1,8,7/3,5,
{8}2,6,4/5,3,7,2,1/8p4[8:1]*p4[8:1],,
||bridge1.1
{8}8xp5[8:3]/Cf,,,,,,1x<7[16:2]*>7[16:6],,
{8},,,,8x-4[8:1],,,,
{8}2<7[8:1]*<7[8:1],,7-3[8:1]*-3[8:1],,3<6[8:1]*<6[8:1],,,,
{8}8-5[8:1],,4v5[8:1],,8b-4[8:1]*-4[8:1],,,,
{8}2x,2x,6,4,7x,7x,3,5,
{16}1x,7x,1,7,2x,6x,2,6,3x,5x,3,5,4x,,,,
{8}8,8,4x,6x,1,1,5x,3x,
{8}7h[8:1],4h[8:1],5h[8:1],3h[8:1],Cf,,{16}2x,6x,2x,6x,
||bridge1.2
{8}1,3,4/8,6,1/5,3,4/8,6,
{8}5-1[8:1]/2-5[8:1],,5b/2b,,8x-4[8:1]/4x-1[8:1],,4/8,,
{8}2,3,5/7,6,2/4,3,7/5,6,
{8}2-5[8:1]/4-7[8:1],,2/4qq4[8:2],,8x,,,,
{8}7,4,2/8,5,1/7,4,2/8,5,
{8}1-5[8:1]/7-5[8:1],,7-3[8:1]/1b,,1xw5[8:1]/7x,,1x,,
{8}3,6,7/8,5,1/2,4,7/8,5,
{8}1/2-5[8:1],4x,8w4[8:1]/2,6x,8,,E7/B6/E6/E3/B2/E2/Cf,,
||verse2.2
{8}8x-4[8:1],,,,3-6[8:1],5x,3,,
{8}7-4[8:1],5x,7,,3-8[8:1],5x,3,,
{8}7<4[8:1],7,8x,,1>4[8:1],1,8x,7x,
{8}6-1[8:1],5,6x,,4qq5[8:3],,8xp4[8:1],,
{8}8,,3x/7x,,1-5[32:5],8,1x,,
{8}6<8[8:1],4,6x,,2>4[8:1],1,2x,,
{8}6,5,4x,7,2,3,6hx[8:1],1h[8:1],
{8}8,,2x/7x,2/7,3/6,3/6,4x/5x,,
||buildUp1.2
{8}7,6/5,4,3/7,6,4/5,3,2/6,
{16}1,4,3,8,2,6,5,7,{32}1,2,3,4,5,6,7,8,1x,,,,,,,,
||chorus1.3
{8}3,4/5,6,5,4/7,6,3/5,{16}2,8,
{8}1-4[8:1],,7b/1b-6[8:1],,3b/1b-5[8:1],,5b/1b,,
{8}7,6,5/4,3,2/8,7,1-5[8:1]/6,2,
{8}1/4-7[8:1],,2<3[8:2]/4,,Cf/B7/B8/2x,,,,
{8}2,1,8/7,6,2/5,3,4/7,6,
{8}5-1[8:1],1-5[8:1],5x/1x,,B3/E4/E3,,B7/E8/E7,,
{8}3,4,2/5,1,7,8,1/6,5,
{8}4V28[16:4],6,8x<2[16:4]/4x,,Cf,,,,
||chorus1.4
{8}8,1/7,2,5,4/6,3,8/2,{16}7,1,
{8}8-5[8:1],,8b-3[8:1]/1b,,8b-4[8:1]/7b,,8b/4b,,
{8}1,5,4/6,3,8,4,3/5-1[8:1],6,
{8}7-4[8:1]/5,,2<3[8:2]/7,,B3/B4/Cf/2x,,,,
{8}2,7,1/8,3,5,4/6,2,1/8,
{8}7-3[8:1],3-7[8:1],3x/7x,,E1/B1/E2,,E7/B7/E8/E3/B3/E4,,
{8}5,1,2/4,3,8,4,7/5,6,
{8}1-5[8:1],4,1x/6x,7,8-4[8:1],4,8x/2x,,
||outro
{8}1bpp4[8:4]/5bpp8[8:4],,,,,,,,
{8}7bpp4[8:4]/3bpp8[8:4],,,,,,,,
{8}1bqq3[8:4]/5bqq7[8:4],,,,,,,,
{16}8,4,6,5,7,3,5,4,6x-1[8:1]/2x-5[8:1],,,,6/2,,,,
{8}8bqq5[8:4]/4bqq1[8:4],,,,,,,,
{8}2bqq5[8:4]/6bqq1[8:4],,,,,,,,
{8}8bpp6[8:4]/4bpp2[8:4],,,,,,,,
{16}1,5,8,7,2,6,1,8,3xv8[8:1]/7xv4[8:1],,,,3/7,,,,
{8}2bq6[8:10]/6b<6[8:20],,,,,,,,
{1},,
E
