&title=【南蛮大布】RapTure
&artist=Kadeza feat.玄景龙
&first=0
&des=AAAAAAAA
&des_5=AAAAAAAA
&lv_5=14
&inote_5=(105){4},,4/2-4[8:1],5,
5/7-5[8:1],4,4/2V46[6:1],6-3[8:1],
1V75[6:1],4-7[8:1],{8}2,1,{4}8>3[8:1],
{8}6,7,{4}8<5[8:1],{8}2q6[8:1],1,{4}8-4[8:1],
{8}8/5,3,{4}1-5[8:1],{8}1/4,6,8-4[8:1],1,
2-6[8:1],3,2/5,7,{16}1pp5[16:3],6,3,7,,,,,8qq4[16:3],
3,6,2,,,,,3qq6[16:3],6,2,7,,,,,7pp3[16:3],
4,6,2,,,,,1pp5[16:3],6,3,7,,,,,8qq4[16:3],
3,6,2,,,,,3qq6[16:3],6,2,7,,,,,7pp3[16:3],
4,6,2,,,,,1xpp5[16:3]*qq5[16:3],8,{8}2,{16},,,,6xpp2[16:3]*qq2[16:3],
5,{8}7,{16},,,,3xqq7[16:3]*pp7[16:3],4,{8}2,{16},,,,8xqq4[16:3]*pp4[16:3],
1,{8}7,{16},,,,3-8[16:1],4,2,5,,,6,{32}6,5,
{16}7,7/8,7,7/5,4,3,{8}2,{16}2-5[16:1],1,3,8,,,7,{32}7,8,
{16}6,6/5,6,6/8,7,3/5,{8}1/7,{16}2,{32}2,4,{16}3,3,5/6,8/7,{8}1/2,
{16}7,{32}7,5,{16}6,6,4/3,1/2,{8}8/7,{16}2,{32}2,4,{16}3,3,{32}6,5,{16}6,4/7,8,
{32}2,1,3,1,{16}2h[16:1],{32}6,5,7,5,{16}6,{8}4-8[8:65]*-1[8:65]*-7[8:65]*w8[8:65],{2}4bh[4:31],
{1},,,,,,,,{8}1b/7b,
{16}3,3,5,4,{8}5,{16}2-5[16:1],7,3-7[16:1],6,{8}2,3,
{16}2/8,{32}3,4,{16}3-7[16:1],2,4,1,{8}3,{16}7x/6x,7x/6x,{8}7x/6x,{16}3x/2x,3x/2x,{8}3x/2x,
{16}2,{32}6,6,{16}4q8[16:1]*V28[16:1],7,3,6,{8}4,{16}7x-4[16:1],2,6-2[16:1],3,{8}7,6,
{16}7/1,{32}6,5,{16}6,{32}3,4,{16}2,{32}7,8,{8}6,{16}2-5[16:1],7,3-7[16:1],6,{8}2,3,
{16}2/8,{32}3,4,{16}3,{32}6,5,{16}7,{32}2,1,{8}3,{16}2-5[16:1],7,3-7[16:1],6,{8}2,3,
{16}2/8,{32}3,4,{16}3-7[16:1],2,4,1,{8}3,{16}2,{32}7,7,{16}4V68[16:1]*p8[16:1],6,3,5,{8}4,
{32}2x,4,3,4,{16}2,{32}6,5,7,5,{16}6,{8}6/4,{16}1-4-1-4-1-4-1-4-1-4-1-4-1[2:3],6,4,7,1,6,4x,7,
1x,6,4x,7,1x,6,4x,7,1x,6,4x,7,1x,6,4x,7,
1x,6,4x,7,1x,6,{8}4,{16}2,6,4,8,2-7-2b[8:1],5,{8}3,
{4}2b/6-3-6b[8:1],6b/2,{16}3,7,1,5,3-6-3b[8:1],8,{8}2,
{4}3b/7-2-7b[8:1],7b/3,{16}2,4,3,{32}6,5,{16}6<1[16:1],4,{8}2,
{4}2/6>3[16:1],7/6-2b[16:1],{2}A6f,
{8},,,,1pp4[4:1],{16}6,6,7,7,{8}6,
5pp8[16:3],{16}3,3,2,2,{8}3,2pp5[16:3],{16}7,7,8,8,{8}7,
6pp1[16:3],{16}4,4,3,3,{8}4,{16}3,4,5,6,{32}4,5,{16}4,{8}2/7,
{32}3,4,3,4,{16}3,{32}6,5,6,5,{16}6,{32}1,8,1,8,{16}2/7,{32}6,5,{16}6,{32}3,4,{16}3,2,1,8,
8h[32:1]/1h[32:1],8h[32:1]/2h[32:1],8h[32:1]/3h[32:1],8h[32:1]/4h[32:1],8h[32:1]/5h[32:1],8h[32:1]/6h[32:1],{8}8h[32:1]/7h[32:1],{2}1b/5bw1b[2:15]*-8b[2:15]*-2b[2:15]*-1b[2:15],
{1},,,,,,,{4},,{6}3/7<4[12:1],
{12}3,3/7>2[12:1],,3,
{6}3/7<4[12:1],{12}3,3/7,,,{6}6/2>5[12:1],{12}6,6/2<7[12:1],,6,
{6}6/2>5[12:1],{12}6,6/2-7-2[6:1],6,6,{4}6/2-5-2[6:1],7x-4-7[6:1],
7-2-7[6:1],4x,{6}1-5[12:1],{12}6,1/7q3>7[3:1]*p3<7[3:1],,,{2}B7f,
{6}3/7<4[12:1],{12}3,3/7>2[12:1],,3,
{6}3/7<4[12:1],{12}3,3/7,,,{6}6/2>5[12:1],{12}6,6/2<7[12:1],,6,
{6}6/2>5[12:1],{12}6,6/2-6-2[6:1],6,6,{4}2/7<4[12:1],{12}3/7>2[12:1],,3,
{6}3/7<4[12:1],{12}3,3/7-3-7[6:1],3,3,{4}7/2>5[12:1],{12}6/2<7[12:1],,6,
{6}6/2>5[12:1],{12}6,6/2-6-2b[6:1],6,6,,,,8b-4[12:1],,3,
{6}8/2-6[12:1],{12}7,2/6-2[12:1],,3,{6}6/4-8[12:1],{12}6,4/7-3[12:1],,2,
{6}7/3-7[12:1],{12}6,3/5-1[12:1],,3,{6}5/2-6[12:1],{12}5,2/6-1[12:1],,5,
{6}4<7[12:1],{12}3,1/4>8[12:1],,7,{4}4/6qq4[12:1],6/4p8b[12:1],
4/7qq5b[12:1],7q3b[12:1],
E
