&title=【宴】 Straight into the lights
&artist=Cosmograph
&first=1.4
&des=Jack
&lv_5=+BPM
&lv_6=-BPM
&inote_4=(180)
{32}8-3-5-8[8:12]b,1/7,2/6,3/5,4-7-1-4[8:11],,,,
{2},,,
{8},,6h[4:1],5,4,3,,7h[4:1],6,5,4,,
{8}E1,E8,E7,E4,E3,E2,,
{8}6-8v1-3-5[8:11]b`2-4v5-7-1[8:11],
{2},,,
{8},,1h[4:1],2,3,4,,8h[4:1],1,2,3/Ch[4:2]f,,,,1bw5[12:1]b,,,,
{4}7/5,7/5,2/4,2/4,8/6,8/6,1/3,1/3,7-4[8:1],7x/8x,2-5[8:1],1x/2x,6-1[8:1],6x/5x,3-8[8:1],4x/3x,
{8}7/5,8,2/4,1,6/5,1,4/3,8,7/5,6,2/4,3,8/5,6,1/4,3,
{16}6,5,7,3,4,2,6,5,8,3,4,1,7,5,6,4,
{24}1,2,3,7,6,5,2,3,4,8,7,6,
{32}5h[2:1]b/1,2,3,4,,6,7,8,1,2,3,4,,6,7,8,
{2}1w5[2.35##0.1]b,,,
{8},,1b,,
{8}8-6-4[8:1]/3v8[8:1],4v7[4:1],8/3,,1v4>8[1:1]b,,8v5[8:1],,8bqq4[8:4],,,,,,,,
{8}1v4[8:1]/5-7-1[4:1],,1q5<8[1:1]b,,3>8[12:1],,3pp8[2:1],,3b,,,,,,
{8}7-5-3[4:1]/3,7/3,3-5-7[4:1]b,,Cf,,1-5[12:1]b,,1<6s2[8:6],,5-7-3-1[8:4]b,,,,,,,,
{8}7v4[8:1]/3v8[8:1],,7/3/Cf,,1-7-5-1-3[32:24],,7z3[2:1]b,,,,,,
{8},,5-1[12:1]b,,Cf/5b,,7bh[8:1]/3bh[8:1],,1-3-5[8:1]/5-7-1[8:1],,1qq5[4:3]b/5qq1[4:3]b,,,,,,,,,,
{8}7-4[8:1]/3-8[8:1],,7/3,,7-1-3-6-1[1:1]b/3-5-7-2-5[1:1]b,,7/3,,,,,,,,,,
{8}8p4[8:1]/4p8[8:1],,Cf,,3-5-7[4:1]b,,7-1-3-5-7[4:3],,5-7-1-3[2:1]b,,,,,,,,
{8}8z4[4:1]b,,4-8[4:1],,6z2[4:1]b,,2-6[4:1],,,,,,E8/E2,E7/E3,E6/E4,,
{24}7,2,5,4,8,1,6,3,
{24}8/1,7,6/4,3,2,8/1,7,6,5/3,2,8/1,
{24}7,6,5,4/8,3,2,1/5,8,7,6,5,
{32}4/8,1,2,3,4,5,6,7,8,1/5,4,3,2,1,8,7,6b/2b,,,,,,,,
{16}7-4[8:1]/1,,3,3,7/8,,2-5[8:1],,8/1,,2,6,6,,7v4[8:1]/3,,8/1,,7,2,2,,5/6v1[8:1],,4,4,6,,2b,,
{8},8b/7b,6b-4-8[4:1]b/1b,,6b/3b,2b-5[8:1],,1b/2b,6b,,,
{8}8/7,6/5,4/3,1/2,8/7,,
{16}7v4[12:1]/1,,6,8,7,,2,,2v5[12:1]/8,,3,1,2,,7,,
{16}8-6-4[4:1]/Cf,,1,1,8/4-2-8-6[32:12]b,,,,,,,,,,,,
{16}1-3-5[4:1]/7,,8,8,1
{1},,,,,,,,,,,,,
{4},,,7,3,7,3,
{8}6,2,6,2,5,1,5,1,
{16}8,4,8,4,8,4,7b,3,7b,3,7b,3,7b,3,7b,3,
{32}7b/3,8b/4,1b/5,6/2b,7-3[2:1]b/3b,
&inote_5=(180)
{32}8b,1/7,2/6,3/5,{8}4b,,2>5[8:1]/6,2/6,,8,8h[16:6],,,6,5,7,6,3/5,,
2/4,3,4,5,,4/6,5,6,7h[16:14],,B6,B7,B8,B1,B2,B3,
,5,,3/7<4[8:1],3/7,,1,1h[16:6],,,3,4,5>2[8:1],4/6,,7,
5,6,5,4,,3/5,4,3,2x-6[16:2]/6x-2[16:2],,A4/B4,B8/A8,Cf,,,,
{4}7-1[16:2]/1,B6,5-7[16:2],B4,3-5[16:2],B2,1-3[16:2],B8,
1/7-3[16:2],E7/E4,7/1-5[16:2],E3/E8,1/5w1[16:2],A3/A7,5,4b/6b,
{8}3/5,2,4/6,7,3/4,1,5/6,8,3/5,1,4/6,7,2-4[16:2],8-6[16:2],1-5[16:2],7,
2,8,1,7,{16}3,3,4,2,6,6,5,7,{24}3,2,1,8,7,6,3,2,1,8,7,6,3pp6>7pp2[5:8],2,1,8,7,6,3,2,1,8,7,6,
{4}3b/5bhx[8:14],,,,,,,1b,
{8}2/4,3,4,3q5[4:1]/5,,6,5,3,8h[16:6],,,,8/6,7,5h[16:2],6,
3-1[16:2]/4-8[16:2],,8/1-5[16:2],,3/4,,5<3[4:1],,8>3[8:1],,4,5,6,7,8z4b[16:2],,
2h[16:2]/6h[16:2],,,,3h[16:2],7h[16:2],5h[8:6],,A3/B3,,B7/A7,,1h[8:2],3,4,6h[16:10],
B8/A8,,B4/A4,,3<6[16:2],2/7,1/8,,3/6,,4z8b[16:2]/5s1b[16:2],,2>4[16:2]/7<5[16:2],,,,
2x/7x,,1h[16:2]/8h[16:2],,2b/7bp4[16:3],,5/6,3,1h[16:6],,,,1/3,4h[8:2],3h[16:2],,
6-8[16:2]/5-1[16:2],,1/8-4[16:2],,6/5,,4>6[4:1],,1<6[8:1],,5,4,3,2,1q5[16:2]*p5[16:2],,
3h[16:2]/7h[16:2],,,,8h[16:2],6h[16:2],4h[8:6],,A6/B6,,B2/A2,,8h[16:2],7h[16:2],6h[16:2],5h[16:10],
A3/B3,,A7/B7,,1>3[16:2]*<6[16:2],8,2/7[16:2],,,,E5,C,1/8,1/8,2/7,3/6,
{16}4,5,4,5,2,4,3,4,1,8,1,8,5,6,5,7,{24}2,3,4,5,6,7,{32}8z4b[16:2],1,2,3,4,5,6,7,{48}8,1,2,3,4,5,6,7,8,1,2,3,{4}4b,
{16}2/6,,3,3,4,,2/5,,4/6,,7,7,8,,1/6,,3/5,,2,2,1>6[16:2],,5/6,,7,7,8,6,1b,,,,
{8}7-1[16:2],7,,5-7-4[16:2]/6,4/7,,3/4,2h[16:6]/5,,,4>1[16:2],3,5/6,7,4/8b,,
3/7,{16}6,6,5,,4/7,,3/5,,2,2,1,,3/8,,4/6,,7,7,8-6-4[16:2],,3/4,,2,2,1,3,8,,,,
{8}2b-6[16:2]/3bh[8:2],,,1,2/5<8[16:2],,3/4,2>5[16:2],1/5,,7>2[16:2],2/6,,4/5,E5,,
{4}4-8[16:9],2/6,4/8,{16}5,6,7,,4-8b[16:2],3,2,,4h[8:2],,,,{2}Cf,
{16}6/2,,3,3,4h[16:2],,1,,3/7,,6,6,5h[16:2],,8,,1/7,2,3,4,5/2,3,4,5,6<4-2-8-6-4[8:13]/3,4,5,6,3b/7b,,,,
{2}Ch[4:6],,,,
Chf[4:6],,,,
{8}2,2h[8:2],,4,4h[16:10],,,,,3h[8:2],,5,4,4,3/5,,
7,7h[8:2],,5,5h[16:10],,{24}E6,E7,E8,E1,E2,E3,E4,,,{8}6h[8:2],,4,5,5,6/4,,
{4}1,1,1,1,{8}2/8,3,4/5,6,1/7,2,3/5,4/6,
{16}5,7,4,6,3,5,2,4,{24}1-5[16:2],2,3,8,7,6,3,4,2,6,5,7,{1}1bx/8b,
{8}3bh[8:2]/E5f,6,7,4bh[8:2]/E6f,6,7,5bh[4:2]/E7f,8v5<6-1[8:2],,,8,E2,E3,E4,E5,E6/D7,
3b,2/4h[8:2],,3b,6/5h[8:2],,7,1v4[16:2]*v6[16:2]/8,2b/3,6b/4,,1b,,3/7,3/7,5,
6bh[8:2]/E5f,3,2,5bh[8:2]/E4f,3,2,4bh[4:2]/E3f,1v4>2-8[8:2],,,1,E8,E7,E6,E5,E4/D3,
6b,7/5h[8:2],,6b,3/4h[8:2],,2,8-4[16:2]/1,7b/5,3b/4,,1b/8b,,5/6,3b/7b,,
2/8,,2/B6,B5,2,E8,E7/2,E6,E5/3,,3/D1,D8,3/D7,D6,3/D5,,
7/B1,B2,7/B3,B4,7,E2,E3/7,E4,E5/6,,6/D1,D2,6/D3,D4,6/D5f,,
7-4[16:2],4-8[16:2],8-3[16:2],3>5[8:1],7,,1x,1xh[8:2],,,1,8,1/7,6,4/5,3,
2/8,5/6,1/7,3/4,{16}6,6,5,7,3,3,4,2,5bh[8:2],,{48}A3,D3,A2,D2,A1,D1,A8,D8,A7,D7,A6,D6,A5,D5,A4,D4,,,{8}3x/7x,3x/7x,2b/8b,,
1/5,{16}3,4,2>5[16:2],,8-4[16:2],1,8,,4/6,,2,,8,,1,,3,4,2-8[16:2],,7-3[16:2],8,6,,3/5,,2,,7,,
1,2,3,4,5h[8:2]/6v1[16:2],7,8,1,2,3,4,5,6x/2b,,,,3,3,4,2,6,6,5,7,1-5[16:2],8,2,7,3,6,4,,
1/5,,7,8,7,,1/5,,2,4,3,5,4,,5/6,,4/8,7,6,5,4/7,6,5,4,{2}3bh[4:2]/7bh[4:2],
{8},3/7,8,1/6,2/5,3,4/6,3/7-3[16:2],8-4[16:2],1-5[16:2],2-6[16:2],7bx,8bx,1bx,2bx,,
8/4,{16}6,5,7<4[16:2],,1-5[16:2],8,1,,5/3,,7,,1,,8,,6,5,7-1[16:2],,2-6[16:2],1,3,,6/4,,7,,2,,
8,8,4,7,5/6,,1,1,5,2,3/4,,5/6,4,3,2,1/8,7,6,5,3v8[16:2]/4h[8:2],2,1,8,7,6,5,4,3x/7b,,,,
{32}5,,5h[32:6],,7,8,1,2,3,,,,8,,8h[32:6],,6,5,4,3,2,,,,{16}1/5,6,7,8,1/6,7,8,1,2/7,8,1,2z6>4>4-8b[32:92],3bh[64:14]/7bh[64:14],,,,{32}4x/8x,1/5,2/6,3/7,{16},,
{1}Cf,,
{8},,,,,,,,5,,5,,4,,2-4[16:2]/6-4[16:2],,
8,,,,7,3,5h[8:6],,D4,,D7,,2,2,4,4h[16:10],
D6,,D3,,5,5,6,,3,,4>2b[16:2]/5<7b[16:2],,4z8[16:2]/5s1[16:2],,,,
4x/5x,,2h[16:2]/7h[16:2],,3bV51[16:2]/6b,,1/5,6,7h[8:2],,8xV64[16:2],,,1/2,3xh[8:6]/8x,,
4x-8[16:2],,2x-6[16:2],,4V68-2[8:1],3,2x<4[4:1],,4,,4x,3,2,1,8xs4[16:2]*z4[16:2],,
2h[16:2]/6h[16:2],,,,1v6[16:2],3h[16:6],5v2[16:2],,,,7h[8:2],,1h[16:2],3h[16:2],4h[16:2],6h[16:10],
A8/B8,,A4/B4,,2-4<5-7[8:1],1/8,1/8,1/8,2/7<2[8:1],,Ch[16:2],,E3,E4,E6,E7,
{16}8,7,8,7,2,4,3,4,2,1,2,1,5,6,5,7,{24}3,2,1,8,7,6,3/5,2,1,8,7,6,4/5,3,2,1,8,7,4/6,3,2,1,8,7,
4,5,4,5,4,5,3,6,3,6,3,6,2-6b[16:2],7,2,7-3b[16:2],2,7,1,8,1,8,1,8,{48}2b,Cf,,,,,7b,Cf,
&inote_6=(45)
{128}8b,1/7,2/6,3/5,{32}4b,,2>5[16:1]/6,2/6,,8,8h[32:3],,,6,5,7,6,3/5,,
2/4,3,4,5,,4/6,5,6,7h[32:7],,B6,B7,B8,B1,B2,B3,
,5,,3/7<4[16:1],3/7,,1,1h[32:3],,,3,4,5>2[16:1],4/6,,7,
5,6,5,4,,3/5,4,3,2x-6[32:1]/6x-2[32:1],,A4/B4,B8/A8,Cf,,,,
{16}7-1[32:1]/1,B6,5-7[32:1],B4,3-5[32:1],B2,1-3[32:1],B8,
1/7-3[32:1],E7/E4,7/1-5[32:1],E3/E8,1/5w1[32:1],A3/A7,5,4b/6b,
{32}3/5,2,4/6,7,3/4,1,5/6,8,3/5,1,4/6,7,2-4[32:1],8-6[32:1],1-5[32:1],7,
2,8,1,7,{64}3,3,4,2,6,6,5,7,{96}3,2,1,8,7,6,3,2,1,8,7,6,3pp6>7pp2[10:4],2,1,8,7,6,3,2,1,8,7,6,
{16}3b/5bhx[16:7],,,,,,,1b,
{32}2/4,3,4,3q5[8:1]/5,,6,5,3,8h[32:3],,,,8/6,7,5h[32:1],6,
3-1[32:1]/4-8[32:1],,8/1-5[32:1],,3/4,,5<3[8:1],,8>3[16:1],,4,5,6,7,8z4b[32:1],,
2h[32:1]/6h[32:1],,,,3h[32:1],7h[32:1],5h[16:3],,A3/B3,,B7/A7,,1h[16:1],3,4,6h[32:5],
B8/A8,,B4/A4,,3<6[32:1],2/7,1/8,,3/6,,4z8b[32:1]/5s1b[32:1],,2>4[32:1]/7<5[32:1],,,,
2x/7x,,1h[32:1]/8h[32:1],,2b/7bp4[32:3],,5/6,3,1h[32:3],,,,1/3,4h[16:1],3h[32:1],,
6-8[32:1]/5-1[32:1],,1/8-4[32:1],,6/5,,4>6[8:1],,1<6[16:1],,5,4,3,2,1q5[32:1]*p5[32:1],,
3h[32:1]/7h[32:1],,,,8h[32:1],6h[32:1],4h[16:3],,A6/B6,,B2/A2,,8h[32:1],7h[32:1],6h[32:1],5h[32:5],
A3/B3,,A7/B7,,1>3[32:1]*<6[32:1],8,2/7,,,,E5,C,1/8,1/8,2/7,3/6,
{64}4,5,4,5,2,4,3,4,1,8,1,8,5,6,5,7,{96}2,3,4,5,6,7,{128}8z4b[32:1],1,2,3,4,5,6,7,{192}8,1,2,3,4,5,6,7,8,1,2,3,{16}4b,
{64}2/6,,3,3,4,,2/5,,4/6,,7,7,8,,1/6,,3/5,,2,2,1>6[32:1],,5/6,,7,7,8,6,1b,,,,
{32}7-1[32:1],7,,5-7-4[32:2]/6,4/7,,3/4,2h[32:3]/5,,,4>1[32:1],3,5/6,7,4/8b,,
3/7,{64}6,6,5,,4/7,,3/5,,2,2,1,,3/8,,4/6,,7,7,8-6-4[32:1],,3/4,,2,2,1,3,8,,,,
{32}2b-6[32:1]/3bh[16:1],,,1,2/5<8[32:1],,3/4,2>5[32:1],1/5,,7>2[32:1],2/6,,4/5,E5,,
{16}4-8[32:9],2/6,4/8,{64}5,6,7,,4-8b[32:1],3,2,,4h[16:1],,,,{8}Cf,
{64}6/2,,3,3,4h[32:1],,1,,3/7,,6,6,5h[32:1],,8,,1/7,2,3,4,5/2,3,4,5,6<4-2-8-6-4[16:13]/3,4,5,6,3b/7b,,,,
{8}Ch[8:3],,,,
Chf[8:3],,,,
{32}2,2h[16:1],,4,4h[32:5],,,,,3h[16:1],,5,4,4,3/5,,
7,7h[16:1],,5,5h[32:5],,{96}E6,E7,E8,E1,E2,E3,E4,,,{32}6h[16:1],,4,5,5,6/4,,
{16}1,1,1,1,{32}2/8,3,4/5,6,1/7,2,3/5,4/6,
{64}5,7,4,6,3,5,2,4,{96}1-5[32:1],2,3,8,7,6,3,4,2,6,5,7,{4}1bx/8b,
{32}3bh[16:1]/E5f,6,7,4bh[16:1]/E6f,6,7,5bh[8:1]/E7f,8v5<6-1[16:1],,,8,E2,E3,E4,E5,E6/D7,
3b,2/4h[16:1],,3b,6/5h[16:1],,7,1v4[32:1]*v6[32:1]/8,2b/3,6b/4,,1b,,3/7,3/7,5,
6bh[16:1]/E5f,3,2,5bh[16:1]/E4f,3,2,4bh[8:1]/E3f,1v4>2-8[16:1],,,1,E8,E7,E6,E5,E4/D3,
6b,7/5h[16:1],,6b,3/4h[16:1],,2,8-4[32:1]/1,7b/5,3b/4,,1b/8b,,5/6,3b/7b,,
2/8,,2/B6,B5,2,E8,E7/2,E6,E5/3,,3/D1,D8,3/D7,D6,3/D5,,
7/B1,B2,7/B3,B4,7,E2,E3/7,E4,E5/6,,6/D1,D2,6/D3,D4,6/D5f,,
7-4[32:1],4-8[32:1],8-3[32:1],3>5[16:1],7,,1x,1xh[16:1],,,1,8,1/7,6,4/5,3,
2/8,5/6,1/7,3/4,{64}6,6,5,7,3,3,4,2,5bh[16:1],,{192}A3,D3,A2,D2,A1,D1,A8,D8,A7,D7,A6,D6,A5,D5,A4,D4,,,{32}3x/7x,3x/7x,2b/8b,,
1/5,{64}3,4,2>5[32:1],,8-4[32:1],1,8,,4/6,,2,,8,,1,,3,4,2-8[32:1],,7-3[32:1],8,6,,3/5,,2,,7,,
1,2,3,4,5h[16:1]/6v1[32:1],7,8,1,2,3,4,5,6x/2b,,,,3,3,4,2,6,6,5,7,1-5[32:1],8,2,7,3,6,4,,
1/5,,7,8,7,,1/5,,2,4,3,5,4,,5/6,,4/8,7,6,5,4/7,6,5,4,{8}3bh[8:1]/7bh[8:1],
{32},3/7,8,1/6,2/5,3,4/6,3/7-3[32:1],8-4[32:1],1-5[32:1],2-6[32:1],7bx,8bx,1bx,2bx,,
8/4,{64}6,5,7<4[32:1],,1-5[32:1],8,1,,5/3,,7,,1,,8,,6,5,7-1[32:1],,2-6[32:1],1,3,,6/4,,7,,2,,
8,8,4,7,5/6,,1,1,5,2,3/4,,5/6,4,3,2,1/8,7,6,5,3v8[32:1]/4h[16:1],2,1,8,7,6,5,4,3x/7b,,,,
{128}5,,5h[64:3],,7,8,1,2,3,,,,8,,8h[64:3],,6,5,4,3,2,,,,{64}1/5,6,7,8,1/6,7,8,1,2/7,8,1,2z6>4>4-8b[64:46],3bh[128:7]/7bh[128:7],,,,{128}4x/8x,1/5,2/6,3/7,{64},,
{2}Cf,
{32},,,,,,,,5,,5,,4,,2-4[32:1]/6-4[32:1],,
8,,,,7,3,5h[16:3],,D4,,D7,,2,2,4,4h[32:5],
D6,,D3,,5,5,6,,3,,4>2b[32:1]/5<7b[32:1],,4z8[32:1]/5s1[32:1],,,,
4x/5x,,2h[32:1]/7h[32:1],,3bV51[32:1]/6b,,1/5,6,7h[16:1],,8xV64[32:1],,,1/2,3xh[16:3]/8x,,
4x-8[32:1],,2x-6[32:1],,4V68-2[16:1],3,2x<4[8:1],,4,,4x,3,2,1,8xs4[32:1]*z4[32:1],,
2h[32:1]/6h[32:1],,,,1v6[32:1],3h[32:3],5v2[32:1],,,,7h[16:1],,1h[32:1],3h[32:1],4h[32:1],6h[32:5],
A8/B8,,A4/B4,,2-4<5-7[16:1],1/8,1/8,1/8,2/7<2[16:1],,Ch[32:1],,E3,E4,E6,E7,
{64}8,7,8,7,2,4,3,4,2,1,2,1,5,6,5,7,{96}3,2,1,8,7,6,3/5,2,1,8,7,6,4/5,3,2,1,8,7,4/6,3,2,1,8,7,
4,5,4,5,4,5,3,6,3,6,3,6,2-6b[32:1],7,2,7-3b[32:1],2,7,1,8,1,8,1,8,{192}2b,Cf,,,,,7b,Cf,
