&title=たぶん終わり
&artist=いよわ
&first=0
&des=KLEarth
&lv_5=13+
&inote_5=(160)
{4},,,,
{4},,,,
{4},,,,
{4},,,,
{16}3h[999:1],4h[999:1],3h[999:1],5h[999:1],4h[999:1],5h[999:1],3h[999:1],4h[999:1],3-8[8:1],,,4,,,,,
{16}6h[999:1],5h[999:1],6h[999:1],4h[999:1],5h[999:1],4h[999:1],6h[999:1],5h[999:1],6-1[8:1],,,5,,,,,
{16}2b,,,3h[16:3]/4,,,5,4,7h[4:1],,8,,1h[8:1],,{24}7,6,5,
{16}34,,,32,,,21,,1-4[8:1]/2-5[8:1],,,,,,,,
{16}7h[8:1],,4,5,4,6,5,6,4-8[8:1],,,,,,,,
{16}2h[8:1],,5,4,5,3,4,3,5-1[8:1],,,,,,,,
{16}7/8,,,6h[16:3]/5,,,4,5,2h[8:1],,1,,1/8h[8:1],,{24}2,3,4,
{16}65,,,67,,,8pp8[4:1]/7,,7/8qq6[8:1],,,,,,,,
{16}2h[8:1],,5,3,6,4,6,4,5-2[8:1]*-1[8:1],,,,,,,,
{16}7h[8:1],,4,6,3,5,3,5,4-7[8:1]*-8[8:1],,,,,,,,
{16}2/1,,,3h[16:3]/4,,,5,4,7h[8:1],,8,,8/1h[8:1],,{24}7,6,5,
{16}34,,,32,,,1qq1[4:1]/2,,2/1pp2[8:1],,,,,,,,
{16}8h[8:1],,5,6,3,4,3,4,1<6[8:1]*p5[8:1],,,,,,,,
{16}1h[8:1],,4,3,6,5,6,5,8>3[8:1]*q4[8:1],,,,,,,,
{16}6/5,,,7h[16:3]/8,,,4,5,3h[8:1],,1,,2/8h[8:1],,{24}3,4,5,
{16}76,,,78,,,1/8,,7h[8:1]/2h[8:1],,,,4,5,4,5,
{16}3h[999:1],4h[999:1],3h[999:1],5h[999:1],4h[999:1],5h[999:1],3h[999:1],4h[999:1],2-5[8:1],,,1,,,,,
{16}6h[999:1],5h[999:1],6h[999:1],4h[999:1],5h[999:1],4h[999:1],6h[999:1],5h[999:1],7-4[8:1],,,8,,1b,1b,,
{16}2,4,3,5,4,6,5,7,1,8,2<8[12:1],,,,2/5p3[16:7]*q7[16:7],,
{16},,5,,,,,,,,,,1<6[8:1],,,,
{16}5-7[12:1]*-7[12:1],,,,4-8[8:1]*-8[8:1],,,,3-1[12:1]*-1[12:1],,,,7,,7-5[12:1],,
{16},,8-4[8:1],,,,1-3[12:1],,,,,,8,,7,,
{16}6<2[16:3],,,2v4[16:3],,,,,,,,,7>3[16:3],,,3v5[16:3],
{16},,,,,,,,1w5[8:1],,,,,,,,
{16}5,4,6,4,5,3,6,5,7-4[8:1],,,8,,,,,
{16}4,5,3,5,4,6,3,4,2-5[8:1],,,1,,,,,
{16}7,5,6,4,5,3,4,2,8,1,8-5[8:1]*-3[8:1],,,,8qq5[16:7]*pp3[16:7],,
{16},,8,,,,,,,,,,8h[4:1],,,,
{16}4>1[8:1]*>1[8:1],,,,8<5[8:1],,,,3>8[8:1]*>8[8:1],,,,7<4[8:1],,,,
{16}2<7[8:1]*<7[8:1],,,,6>3[8:1],,,,1<6[8:1]*<6[8:1],,,,5>2[8:1],,,,
{16}8,,7,,6,,5,,4,,3,,2,,1,,
{16}8h[2:1],,,,,,,,4w8[8:1],,,,4,,,,
{16}6b-4[12:1],,5,,1-5[8:1],,2,,7-3[8:1],,8,,2-4[12:1],,1,,
{16}7V51[4:1],,6,,1-7[8:1]/7,,2,,3-1[12:1],,4-8[8:1],,3,,4,,
{16}2-5[8:1],,3,,2b>5[8:1]/7b>5[4:1],,6,,2/7,,,,8,,1,,
{16}2-5[8:1],,3,,2b>5[8:1]/7b>5[4:1],,6,,2/7,,,,1,,2,,
{16}3>8[8:1],,,,,,6,,6<1[8:1],,,,,,4,,
{16}4>8[8:1],,,,,,5,,5<1[8:1],,,,,,4,,
{16}4pp7[16:7]*qq1[16:7],,,,,,,,,,,,,,8h[4:1],,
{16},,1,,28,,35,,8-2[12:1],,7-3[8:1],,8<1[4:1],,7,,
{16}8b-4[8:1],,,,8>3[8:1],,,,8/6v1[8:1],,7,,46,,3,3qq8[8:3],
{16},,4,,5,,6,,7-4[8:1],,,,73,,2,,
{16}1-3[12:1],,4,,1b/5bv2[8:1],,7,,5/8-4[8:1],,,,8b<6[12:1]/6b,,7,,
{16}8/4-7[8:1],,2,,4b/1bw5[8:1],,2,,1qq3[8:3],,,,4,,5,,
{16}6V85[4:1]*qq5[4:1],,,,,,,,,,,,2,,3,,
{16}4>7[16:3],,,,7,,6,,5<2[16:3],,,,3,,4,,
{16}5pp1[16:8]*qq1[16:8],,,,,,,,,,,,,,,,
{16}8h[4:2]/2,,,,5,,4,,3-8[8:1],,4,5,3,,6,,
{16}7h[999:1],5h[999:1],7h[999:1],3h[999:1],5h[999:1],3h[999:1],7h[999:1],5h[999:1],7-3[8:1],,,1,,,,,
{16}2h[999:1],4h[999:1],2h[999:1],6h[999:1],4h[999:1],6h[999:1],2h[999:1],4h[999:1],2-6[8:1],,,8,,,,,
{16}7b/8b,,,6h[16:3]/5,,,4,5,3-1[12:1],,8,,3/7,,{24}7,6,5,
{16}34,,,56,,,87,,8-5[8:1]/7-3[8:1],,,,,,,,
{16}2h[8:1],,5,3,7,1,7,1,5-1[8:1]*>2[8:1],,,,,,,,
{16}7h[8:1],,4,6,2,8,2,8,4-8[8:1]*<7[8:1],,,,,,,,
{16}1/2,,,3h[16:3]/4,,,5,4,6-8[12:1],,1,,6/2,,{24}2,3,4,
{16}65,,,43,,,12,,1-4[8:1]/2-6[8:1],,,,,,,,
{16}7h[8:1],,5,6,3,4,2,1,4v7[8:1]*p8[8:1],,,,,,,,
{16}2h[8:1],,4,3,6,5,7,8,5v2[8:1]*q1[8:1],,,,,,,,
{16}8/7,,,6h[16:3]/5,,,4,4,5>2[8:1],,6,,5/7,,{24}8,7,6,
{16}45,,,23,,,8qq8[4:1]/1,,1/8pp1[8:1],,,,,,,,
{16}2h[8:1],,4,3,6,5,7,8,5q2[8:1]*<1[8:1],,,,,,,,
{16}7h[8:1],,5,6,3,4,2,1,4p7[8:1]*>8[8:1],,,,,,,,
{16}1/2,,,3h[16:3]/4,,,5,5,4<7[8:1],,3,,4/2,,{24}1,2,3,
{16}54,,,76,,,1pp1[4:1]/8,,8/1qq7[8:1],,,,,,,,
{1}8,,,,E
