&title=無意識レクイエム feat.lily-an
&artist=森羅万象 × Liz Triangle
&first=0.05
&des=Holinality
&clock_count=4
&lv_5=13
&inote_5=(183)
{1}
,
{1}
,
{24}
3x,,,,,,5x,,,,,,4xh[4:1]/A8,,,A7,,,
A6,,,,,,5x,,,,,,5xh[4:1]/A1,,,A2,,,
A3,,,,,,,,,,,,4xpp1[2:1],,,,,,
4x,,,,,,,,,,,,7x,,,,,,
6,,,,,,4,,,,,,5h[4:1]/A1,,,A2,,,
A3,,,,,,4,,,,,,4h[4:1]/A8,,,A7,,,
A6,,,,,,,,,,,,5qq8[2:1],,,,,,
5,,,,,,,,,,,,,,,,,,
3,,,,,,5,,,,,,4h[4:1]/8,,,7,,,
6,,,,,,5,,,,,,5h[4:1]/1,,,2,,,
3,,,,,,4,,,,,,7-4[8:1],,,4<8[4:1],,,
7,,,,,,,,,,,,2,,,,,,
6,,,,,,4,,,,,,5h[4:1]/1,,,2,,,
3,,,,,,4,,,,,,4h[4:1]/8,,,7,,,
6,,,,,,5,,,,,,1qq6>1[2:4]*pp4<1[2:4],,,6,,,
1,,,,,,,,,,,,,,,,,,
,,,,,,,,,,,,,,,,,,
,,,,,,,,,,,,,,,,,,
,,,,,,,,,Ch[4:3],,,,,,,,,
{16}
,,,,,,,,,,,
(195)
{16}
2/5,,3,,4/7,,6h[4:1],,
,,5-2[8:1],,,,5,,
7<5[8:1],,8,,1,,2,,
3>1[8:1],,4,,5,,6,,
7,,6,,5/2,,3h[4:1],,
,,4-7[8:1],,,,4,,
1-5[8:1],,,,,,7,,
,,,,3b/6b,,,,
{16}
2,,4,,3,,3/5<8[8:1],,
,,5>2[8:1],,,,5,,
7<5[8:1],,8,,1,,2,,
3>1[8:1],,4,,5,,6,,
7,,5,,6,,6/4>1[8:1],,
,,4<7[8:1],,,,4,,
1-5[8:1],,8,,1,,7-3[8:1],,
,,7,,,,,,
2,,4,,3,,3/5<8[8:1],,
,,5>2[8:1],,,,5,,
7<5[8:1],,8,,1,,2,,
3>1[8:1],,4,,5,,6,,
7-4[8:1],,,,7/3-8[8:1],,,,
5-1[8:1]/3,,,,5,,2-4[8:1],,
,,2,,7-5-3[4:1],,,,
7,,1,,1-5>3[4:2],,,,
{16}
1b,,,,,,7,,
7<5-1[4:2],,,,,,2,,
2,,,,,,3,,
2/6,,5,,3/7,,4,,
2-4-1[8:3]/5,,,,,,7,,
7-5-8[8:3],,,,,,3,,
3,,,,,,2-4-6[8:2],,
7,,2,,7-1-5[8:3],,,,
7,,,,,,3,,
3-1-4[8:3],,,,,,7,,
7,,,,,,6,,
7/3,,4,,6/2>5[8:1],,,,
2,,,,7,,8<5[8:1],,
,,8,,2,,1>8[8:3],,
,,,,,,,,
,,5bx,,6,,7,,
{16}
8-6[8:1],,1-3[8:1],,8,,1,,
,,7-4-6-1[4:2],,,,7,,
2,,2,,2,,2,,
2,,,,,,,,
1-3[8:1],,8-6[8:1],,1,,8,,
,,2-5-3-8[4:2],,,,2,,
7,,7,,7,,7,,
7,,7,,7/1,,,,
8-4[8:1],,1-5[8:1],,8,,1,,
,,7-4-6-1[4:2],,,,7,,
2,,2,,2,,2,,
2,,,,,,,,
2-5[8:1],,,,2/6-1[8:1],,,,
2-4-6[4:1]/6,,,,2,,8-4[8:1],,
,,8,,1w5[8:1],,,,
1,,,,,,,,
{16}
6<3[8:3],,,,,,,,
,,4,,4,,6<3[8:3],,
,,,,,,,,
,,,,4,,4,,
7-3[8:1],,,,7/1-5[8:1],,,,
1/6-2[8:1],,,,6,,4>1[4:1],,
,,4,,8,,7,,
6h[4:1],,,,,,,,
3>6[16:6],,,,,,,,
,,5,,5,,3>6[8:3],,
,,,,,,,,
,,,,5,,5,,
2-5[8:1],,,,2/6-1[8:1],,,,
6/4>2[8:1],,,,4,,7,,
6<8[8:1],,,,2/6,,3,,
4>2[8:1],,,,4/8,,7,,
6-1[8:1],,,,6/2-5-3-8[4:2],,,,
2,,7,,7,,7b-4[8:1],,
,,7b,,,,1b>4[8:1],,
,,1,,7,,8-6-4-7[8:4],,
,,8,,2,,2,,2b
,,,,,,,,
{16}
8b-4b[9.3#144:1],,,,,,,,
,,,,,,,,
,,,,,,,,
,,,,,,,,
8bhx[8:24],,,,,,,,
,,,,,,,,
,,,,,,,,,,,,
,,,,,,,,
,,,,,,,,
,,,,,,,,8/2b-7[8:1],,,,
{16}
2/6-3[8:1],,5,,6/2-6[8:1],,1,,
2/8-4[8:1],,7,,8,,2,,
3b-1[195#8:1]/7b-5[195#8:1],,,,3b-5[195#8:1]/7b-1[195#8:1],,,,
3b/7b,,,,,,3,,
7-4[8:1],,6,,7/3-8[8:1],,2,,
5/3,,6,,1,,2,,
7b<4[8:1]/3b>8[8:1],,,,7bq3[8:1]/3bq7[8:1],,,,
7b/3b,,,,,,2,,
3/5-2[8:1],,4,,7/5-8[8:1],,6,,
5>2[8:1]/3,,4,,7/5<8[8:1],,6,,
5,,3,,4/6,,5,,
3-1[8:1]/5-7[8:1],,,,3/5,,,,
8-3[8:1],,2,,8-5[8:1],,6,,
8>3[8:1],,2,,8<5[8:1],,6,,
8b-2[8:1]*-3[8:1],,,,8b-6[8:1]*-5[8:1],,,,
8b,,,,,,2,,
7/3-6[8:1],,4,,3/7-3[8:1],,8,,
7/1-5[8:1],,2,,1,,7,,
6b-8[195#8:1]/2b-4[195#8:1],,,,6b-4[195#8:1]/2b-8[195#8:1],,,,
6b/2b,,,,,,6,,
2-5[8:1],,3,,2/6-1[8:1],,7,,
4/6,,3,,8,,7,,
2b>5[8:1]/6b<1[8:1],,,,2bp6[8:1]/6bp2[8:1],,,,
2b/6b,,,,,,7,,
6/4-7[8:1],,5,,2/4-1[8:1],,3,,
4<7[8:1]/6,,5,,2/4>1[8:1],,3,,
4,,6,,5/3,,4,,
6-8[8:1]/4-2[8:1],,,,6b/4b,,,,
1-6[8:1],,7,,1-4[8:1],,3,,
1<6[8:1],,7,,1>4[8:1],,3,,
1-7[8:1]*-6[8:1],,,,1-3[8:1]*-4[8:1],,,,
1b,,,,,,5h[4:1],,
,,4,,6,,3,,
7,,2,,8,,1,,
8h[4:3],,,,,,,,
,,,,,,,,
{16}
7,,5,,6,,6/4>1[8:1],,
,,4<7[8:1],,,,4,,
2>4[8:1],,1,,8,,7,,
6<8[8:1],,5,,4,,3,,
2,,4,,3,,3/5<8[8:1],,
,,5>2[8:1],,,,5,,
8-4[8:1],,1,,8,,2-6[8:1],,
,,2,,,,,,
7,,5,,6,,6/4>1[8:1],,
,,4<7[8:1],,,,4,,
2>4[8:1],,1,,8,,7,,
6<8[8:1],,5,,4,,3,,
2-5[8:1],,,,2/6-1[8:1],,,,
4-8[8:1]/6,,,,4,,7-5[8:1],,
,,7,,2-4-6[4:1],,2,,
2,,,,,,8-4<7[4:1],,
,,8,,2-5-3-8[8:3],,2,,
2,,6,,6h[4:1],,,,
,,,,,,5bx,1bx,
4bxw8b[8:29],,,,,,,,
,,,,,,,,
,,,,,,,,
,,,,,,,,
,,,,,,,,
,,,,,,,,
,,,,,,,,
,,,,,,,,
,,,,,,,,
,,,,,,,,
,,,,,,,,
,,,,,,,,
,,,,,,,,
,,,,,,,,
