&title=ミラージュ・フレイグランス
&artist=Sound piercer
&first=0.01
&des=TCXLZ
&lv_5=14
&inote_5=(158)
{4},,,,
{16}5,4,,3b/6h[16:13],{4},3,3,3,3/6,3,3/7,3,
{16}3/8x,,,7x,3,,6x,,3,5x,,,3/4x,,4x,,
{12}3/4x,5,6,37,8,1h[12:3],3x,4,5,6,
{16}7,,1bh[16:13]/5b,{4},5,5,5,5/2,5,5/3,5,
{16}4x,5,4,5,4,5,4,5,
{16}4x,3,2,1,7x,6,5,4,1x,2,3,4,8x,7,6,5,{32}2bx,3,4,5,6,7,8,1,
{16}2bx/7bxV51[8:2],,,,2h[8:1]/7x,,,,2V48[8:2],2,,2x/6h[8:1],,,,,6V84[8:2],6,,
6x/3h[8:1],,,,,3,3,,3h[16:4]/7,,A6,A5,A4,,,C,,
{16}6xh[8:1]/3x,,,,6V84[8:2],6,,6x/2h[8:1],,,,,2V48[8:2],2,,
2x/7h[8:1],,,,,7,7,,7h[16:4]/1,,3,4,5,6,7,8,1b/6bh[8:1],,,
{8}3,8h[8:1],4,6h[8:1],3,1h[8:1],4,6h[8:1],3,2h[8:1],4,6h[8:1],
{16}A3,A4,A5,,7,6,5bh[8:1]/2b,,
{8}3,4h[8:1]/7,6,5h[8:1]/1,2,3/7,B2/6,
{16},1,5,1,5,1,5,1,5,1,5,1,5,1,5,1,
{16}5bh,,2,6h,,4,8h,,3,7h,,4,8h,,5,,
{16}1h[16:3]/5,,,5,,,{32}5bx/1bx,48,3q5[8:8]/7q1[8:8],,{4},,,,,,
{16}37,,,37,,,{32}7bx/3bx,62,5q7[8:8]/1,,{4},,,,,{16}2x,2x,,2h[16:4],
{16}6,,,6,,,{32}6bx/2bx,73,8q6[8:8]/4q2[8:8],,{4},,,,,,
{16}26,,,15,,,{8}8bx-4[8:1]/4bx<7[8:1],,,,,
{8}7-5>4[8:1]/4-2<1[8:1],,,,1>4[8:1]/4v7[8:1],,1b/4b,,
{8}4x/7x,4,4/7,4,4/7,4,4/7,4,4/B6/E6,4,4/E8/B8,4,4/B6/E6,4,4/E8/B8,4,
3x/6x,3,3/E8/B8,3,3/6,3,3/E8/B8,3,2x/5x,2,2/E8/B8,2,1x/4x,1,1w5[12:1]/E8/B8,1,
{4}1b>8[8:8]`Cf,,,,{8}1,,2,,{16}3,3,5,5,4,4,6,6,
{16}3,,5,4,6,,3,,{32}E7,B6,B5,E3,B3,B4,,,{16}6,,3,,
{16}5,4,6,3,5,4,6,3,5b,,,4b,,,7b,,
{16}4x/B6/E7,,4,,4/B1/E1,4,,4x/B6/E7,,,4,,4/B1/E1,4,,
4x/B6/E7,,,4,,4/B1/E1,4,,4x/B6/E7,,,4,,4/B1/E1,,,,
{16}4/7-4<6[16:4],,,,2/7,,,8h[16:3],,,,,8/7,,,
5qq5<8[16:8]/2h[16:3],,,,,2>4-8b[16:3],,,,2,,,,,,,,
{8}5x,4/B6/E7,5,3/B1/E1,5,4/B6/E7,5,3/B1/E1,
5,4/B6/E7,5,3/B1/E1,5,4/B6/E7,5,3/B1/E1,
{16}5h[16:4],,2,,2x,2x,,3h[16:7],,5,6,7,8x,,8x,,2/7h[8:1],,2,,1h[8:1]/6,,6,,
{12}27,27,27,3>8[8:1]/8-4[8:1],38,38,
{8}3bx/8bx,,,{64}1b/5b,2x/6x,3x/7x,4xh[64:17]/8xh[64:33],,,,,{8},,,
{16}B4,B3,E3,,E8,E7,E6,E5,E4,E3,4x,5x,6x,7x,8x/B6/B5,1x,2x,3x,
{8}4bxh[8:1]/8bxh[8:1],,,{64}4b/8b,3x/7x,2x/6x,1xh[64:33]/5xh[64:17],,,,,{8},,,
{16}B5,B6,E7,,E2,E3,E4,E5,E6,E7,5x,4x,3x,2x,1x/B3/B4,8x,7x,6x,
{8}5bxh[8:4]/1bxh[8:2],,,,
1b-5b[12:1],,1b/6-3[12:1],,6/1-5[12:1],2,1/7-4[12:1],8,
7/2>5[12:1],B1/E1,2/6v1b[12:1],E8/A7,6b/3bh[8:6],,,
{64}A7f,D7,A6,D6,A5,D5,A4,D4,{8},,,,
{16}2,5,2,6,2,7,2,8,{32}2b,3,4,5,6,7,8,1,2b/Cf,,,,,,,,
{16}6x,4,6,1,6,4,6,2,5x,4,5,1,5,3,5,1,4x,2,7,1,5,3,8,2,
{24}7bx,6,5,4x,3,2,6bx,5,4,3x,2,1,
{16}7bx,6x,5x,4x,8bx,7,6,5,1bx,8,7,6,2bx,1,8,7,6/1,5,4,3,2/6,1,8,7,
{32}B6,B5,B4,B3,B2,B1,B8,B7,A6,A5,A4,A3,A2,A1,A8,A7,
{8}A6f/E6,,,,Ch[8:2]/2h[8:2],,,,{16}2,4,3,5,4,6,5,7,
{12}4b,4,4,6b,6,6,1bv4>2v5[8:8]*v6<8v5[8:8],,,{8},,,,,,,,,,,,,,
{16}7h[16:1]/E4,,,E6/2h[16:1],,,8h[16:1]/E4,,,C/1h[16:1],,,
{16}1/7x,,1/6x,,1/5,8,7,6,5/1,4/8,3/7,2/6,1bpp3b[8:1]/5bpp7b[8:1],,,,,,,,
{1}B5/B4/B6/B3/Cf/B7/B2/B1/B8,,
{32}E3,B3,B4,,,,,,,,,,,,,,B8,B7,E7,,,,,,,,,,,,,,
{16}1x/8x,,,,2x/7x,,,,3x/6x,,,4x,5xh[16:2],,,,
{16}4b,5x,5x,5x,5x,5x,5x,5x,4b,5x,5x,5x,5x,5x,5x,5x,
4b,5x,5x,5x,5x,5x,5x,5x,4b,5x,5x,5x,5x,5x,5x,5x,
{16}4b,,3,,2>5[8:1],,,1,2b,,8,,7<4[8:1],,,8,7b,,,
1b,,,3b,,4b-2b[12:1]/6b-8b[12:1],,,,,,,,
{16}7/1b-3[12:1],,1,,1/7-5[12:1],,7,,7/8,,,7/1,,,
{64}7x>1-5[8:2]/2x<8-4[8:2],E3/E7,B3/B6,B4/B5,,,,,{8},7x/2x,,,
{64}E4/E6,B3`B6,B2`B7,E2`E8,,,,,{8},2/7,,
{16}1h[8:3]/6,,4,,5,6,7h[8:2],,2,,3>1[8:1]*<6[8:1],,4,,3,,,,
{16}8/7,,1/6,,2/5,,3b/4b,,,6bh[16:3]/2bh[16:3],,,,
{32}3x/7x,4x/8x,5x-1[8:1]/1x,,{16},,,5/3,,,,
{24}4x,3,2,8x,7,6,3x,2,1,7x,6,5,8x,7,6,5/1x,4/8x,3/7x,2,1,8,7,6,5,
{8}4b-8b[8:1]/8b,,,,{16}6,5,7,4,6,5,8,3,6,5,8,2,6>3[8:1],3,8,1,6b,,,,5/1,,,,
{12}2/7,3,4,5/8,7,6,
{1}5b-1b[8:1]`2b-5-8-2>2[8:14],C,
{4}C,,C/A3,,Ch[8:8]f/A4,{32},,4x,3x,2x,1xh[32:11],,,{2},{64}1b,E2,B2,B3,E4,,,,
{8},,,{12}7,4,6,2,4,3,{8}5b/Cf,,,{16}4,5,6h[16:6]/3,,,2,,,1,,
{8}Cf/1b,1,1,1,{12}6,6,6,3,3,3,{16}8b,7,6,5,4/8,3,2,1,
{32}3b-7b[8:1],4,5,6,7,8,1,2,{8}3bh[8:1],,
{16}6x-1[12:1],5,7,4,6,,3,,2x-5[12:1],1,3,8,2,,7,,
{16}6,5,4,3>5[16:5],6,5,4,3bh[16:5],{8},,,,
{8}5b-1[8:1]/2b-8[8:1],,5/2,,{16}7b/8b,,,4/5,,,1/2,,
{16}3bh[16:4]/4b,5,6,7,8h[16:6],,5b,4,3,2,1,,{32}1b/8b,2/7,3/6,,,,,,
{16}6,4,6,1,6,4,6,2,5-8[12:1],4,5,1,5,,,,
3,5,3,8,3,5,3,7,2-7b[12:1],5,2,8,2,,,,
{24}7,8,7,8,7,8,7,8,7,8,7,8,{16}7x,6,5,4,1x,2,3,4,
{16}6b,5b,7b,4b,,,2b,8b,1b,7b,{32}2x,3x,4x,5x,6x-1[8:1]/8-4[8:1],,,,
{8},6b/8b<1[8:26]`Cf,,,,,,,,,,,,,,,
{32},B8,B7,E7,{8},,,,,,,{32},E3,B3,B4,{8},,,,Ch[8:4],,,,
{4}1-4[4:1],2,3-6[4:1],4,5-8[4:1],6,7-2[4:1],8,
1-4[4:1],4-7[4:1],7-2[4:1],2>5[4:1],5<8[4:1],8>5[4:2],6v1[4:1],6,,,
