&title=The 89's Momentum
&artist=MYUKKE.
&first=0.94
&lv_5=14
&des_5=maduang
&inote_5=
(128){4},{8},,,,,,6/2,
3,3h[16:3],{16}5,5h[8:1],,,{8}3h[8:1]/B5,B7,3xh[8:1],
5h[4:1],3,3,{16}2,2h[8:1],,B6,{8}E8,3h[8:1],5,
3/7,6,6h[16:3],{16}4,4h[8:1],,,{8}6h[8:1]/B4,B2,6xh[8:1],
{32}B1,B2,B3,B4,{16}B5,B6,{8}B7,{16}6x,5x,,3x,{8}4-1[16:1],5,4b,
{16}1x-3[16:1],8,2x,7,1x,,,6x,{32},,6bx,5,6,5h[32:9],,,{4}8-3[16:1],
{8}8-6[16:1],{16}2,2,{8}8-4[16:1],{16}3x,3x,8,2x,1x,8,{4}7h[8:1],
{8}1/2bx-5[16:1],8/7bx-4[16:1],2b,7b,{16}2bx,1x,2x,1x,{32}3,4,5,6,{8}7xh[16:7],
8x,8x,{16}8x,8x,8x,8x-6[16:1],,3x-5[16:1],8x,3x,,,,,{8}6/2h[8:1],
5,{16}6,5,6-8[16:1],5,,2,{8}6x-1[16:1],3,6,
2-4[16:1],7,{16}2,6x,7x<5[16:1],8x,,3>1[16:1],{8}7x,3b,5b,
5/6h[8:1],2b,4/3h[8:1],7b,8/7h[8:1],3b,1/2h[8:1],6b,
{16}5/4,6h[16:3],{8}3,3h[4:1],7,6<1[16:1],{16}5,4,3x,2x,{8}1x,
4/3,2,{16}5/4,6,3,2-4[16:1],,6,{8}2,8b,1/8bx-5[8:7],
4,3,{16}3x,2x,3x,4x,3x,2x,3x,4x,{8}3bx,2bx,
{4}1xh[8:3],{16}5,5,{8}5,{16}4/8h[8:1],4,{8}4,{16}8,1bx/8bx,{8}2bxh[8:1]/7bxh[8:1],
,2/6,2,{16}6,5/7,,2-7[16:1],{8}3/1,2,5b,
{16}3/4,2,1,2,{32}6,5,{16}6,,4/7<4[16:1],,5,6,7>2[16:1],,1,8,7,
{8}5x,{16}5,2,{32}5,4,{16}5,3/6h[16:3],3>8[16:1],,1,2,3<6[16:1],{8}4x,3,
1h[16:1],{16}6,5,{32}1,8,{16}1,3,7,4,6,5,8,{8}5-3[16:1],6/2h[8:1],
5,{16}1x,8,{32}2,7xV53[32:7],{16}2,,3,,2x,1x,8x,{8}7x-4[16:1],8,
7b,1b,{32}8-6[16:1],1,{16}8,,,8-5[16:1],1,{8}1,{16}8-4[16:1],2,{8}2,
8b-6[16:1],2b,{32}1x/8-4[16:1],2x,{16}3x,,,8-6[16:1],2,{8}2,{16}8-4[16:1],3,{8}3,
{16}8,2,{8}2,{16}6,4,5,1,7,3,3,6,{8}8bx,{16}1,5,
2,6,4,8,8,3,7,3bx,,4,7,2,{4}8/1bxpp4[2:1],
{8}6,5,4<8[2:1],6,{4}7,{8}8pp4[8:7],5,
,7,6,5,6,7,{4}8qq5[2:1],
{8}2,1,5>1[2:1],1,{4}1,{8}1pp5[1:1],8x,
,6,7,8,7,6,7,8,
1,2/7,{4}3h[8:1]/6h[8:1],{8}8/1,7/2,{4}3h[8:1]/6h[8:1],
{8}7h[8:1],2,{16}4,5/3,{8}6/2,{16}5,3,7,3,{8}1h[4:1],2,
{16}4,6,2,8,3,5,1,7,2,6,1,5,{8}5,3h[8:1],
,1-4[16:1]/8-5[16:1],7/2,8/1,{16},B7,{8}B2,{16}4b-1-7b[2:1],4,{8}5,
{16}6,,,5-8[16:1],,,{8}5,,2b>4[16:1],7b,2/8b-5[16:1],
{16},,8,3,{8}3-7[16:1],2,{16}3/4-8[16:1],4,,,{8}4/1-6[16:1],2,
1/8-4[16:1],5,8/1-7[16:1],1/5-8[16:1],6,5/3-6[16:1],{16},3,,,{8}7-3[16:1],
{16}6,2,{8}7-5[16:1]/1-3[16:1],8,{4}7b-1[16:1]/1b-7[16:1],7b/1b,
{16}1h[16:3],,,2h[16:3],,,{8}3h[4:1],,5-2[16:1],6,5/4h[8:1],
{16},,5,3,7,3,8,2,6,4,7,7,3,5,{8}5bxh[16:3],
6,{16}5,4,5,6,5,4,5,6,5,4,{8}4,{16}6,6,
{8}5-1[16:1]/4-8[16:1],6/3,{4}4<7[16:1]/5>2[16:1],4b-1b[16:1]/5b-8b[16:1],5b/4b,
{8}5b/4b,{16}5,3h,3h,7,8h,4,3h,7,3h,1,{8}1,5,
{16}5b,3h,7,5h,1,3h,5,1h,1h,7,7,5h,{4}5b,
{8}4b/5b,{16}4h,6,6,2h,1,5h,6,2h,6,8h,{8}8h,4h,
{16}4bh,6,2h,4,8h,6,4h,8,8,2h,2h,4,{4}4bh,
{8}5b,{16}5,5,3h,3h,7,7,1h,1h,5,3h,{8}1,5bh,
{16}5b,5,3h,7,1h,5,5,3h,1,1,3h,3h,{4}5bh[4:1],
{8}4b,{16}4,5,5,5,4,5,5,5,{8}3-1b[16:1],5b,3b,
{16}6,3,{8}5/4,7,5/4h,{16}7,7,{8}8/1,{4}5bh[8:1],
{8}5/4h[4:1],6,5,{16}6,6/5,,3,{8}3/4V28b[8:3],5,5,
6,7,4,{16}3,3/4,,6,{8}5/6V82b[8:3],4,3,
3,4,5,{16}6,5/7,,3,{8}4/2,6/5h[8:1],6,
{24}1/7,2,3,4,3,2,{8}1/7,{16}7,6/8,,3,{8}4/2,5/6h[8:1],1,
4/3bh[8:1],7,5/6bh[8:1],2,{16}8/7,6,5/4,3,2/1,3,{8}4/5,
1/2bh[8:1],6,8/7bh[8:1],3,{16}5,5,{8}6/4,{16}1,1,{8}8/2,
5b,5b,5b,5b,{16}5bx,5bx,5bx,5bx,5bx,5bx,5bx,5bx,
{32}5bx,4,3,2,1,8,7,6,5,4,3,2,1,8,7,6,{2}1<1[1:1]/5>5[1:1],
{4},,,,6h[4:1],
7h[4:1],8h[4:1],{16}3,3,{8}4/5,
7,4/5,{16}7,8,7,8-4[16:1],,6,{8}6,7,1-5[16:1],
{16}7,7,{8}1-3[16:1],7,1-5[16:1],6,{16}1,7x,8x,1x,{8}2x,
{16}5/6h[8:1],5,{8}8b,{16}4/3h[8:1],4,{8}1b,{16}8/7h[8:1],8,{8}5b,{16}1/2h[8:1],1,{8}4b-7[16:1],
3,4-8[16:1],2,{16}4,2h[16:3],,6,{8}6-4[16:1]*-8[16:1],2,6,
{16}2x,1x,4,5,8,7,,5/6,{32},,E1,B1,B2,B3,{16}E4,4x,4x,{8}4x-2[16:1],
5,{16}4-8[16:1],6,{8}6,{16}4-2[16:1],7,,6,4-8[16:1],7,{8}7,4,
6/3,{16}3,7,1,5,3,7,1,5,3,7,{8}1-3[16:1],6,
{16}5/1,6,7,8,{8}1x,5,{48}8b,7,{24}6,,{8}4,{48}1b,2,{24}3,,{8}5/6h[8:1],
2,4/3h[8:1],7,{16}7,8/7,,2,2,1,{8}2-7[16:1],7,
2-5[16:1],5,2-7[16:1],{16}7,7,,5,{8}5,4h[8:1],5,
6b/5b,6b/7b,7b/8b,8b/1b,{16}2/1b,3,4,5,{32}6,7,8,1,2,3,4,5,
{8}6,8/7h[8:1],8,{16}3/4,3/4,,8/7,{8}7h[8:1]/8h[8:1],,8/7,
{32}5b/1b,6/2,7/3,8/4,1,2,{16}3b,5,7,{8}2,{32}8/4bw8[16:1],3/7,2/6,1/5,8,7,6b,5,{4}4,
E
