&title=Ariah
&artist=satella feat.藍月なくる
&first=0.04
&des=Take Me Hand
&clock_count=3
&lv_5=14
&inote_5=(66)
{6},,,,,,
{96}E2,B2,E5,,{24},,,,,
,,,,,,
{96}E7,B6,E4,,{24},,,,,
,,,,,,
{96}A3,E4,A5,,{24},,,,,
,,,,,,
{96}Ch[8:4],,,,{24},,,,,
,,,,,,
{96}1bx,,,,{24},,,,,
54,,63,,72,,
1b-4[12:1]/8b,,6-1[12:1],,7,,,,,,,,
1-5[12:1],,3-8[12:1],,4,,,,,,,,
6pp4[12:7],,,,,,2qq5[12:4],,,,,,
,,,,,,,,,,,,
4h[8:4]/5^2[12:2],,,,,,
,,,,,,
8^5[12:2],,,,,,
3^8[12:2],,,,,,
5pp2[12:6],,,,,,
,,,,,,
1h[12:3],,,,,,
,,,,,,
3q1[12:2]/5,,,,,,
6h[12:2],,,,,,
7p4[12:3]/8,,,,,,1
,,,,,,
2q6[12:2],,,,,,
6,,,,,,
7/5,,,,4/3h[24:5],,
1bx,,,7bx,,,
2-4[12:1],,5-7[12:1],,8,,,,,,,,
7-4[12:1],,3-8[12:1],,8,,,,,,,,
2^5[12:1],,1x^6[12:1],,4x-8[12:1],,,,,,,,
5^8[12:1],,2x^5[12:1],,1xv6[12:1],,,,,,,,
4^6[12:1],,3q7[12:1],,2q8[12:1],,,,,,,,
1^4[12:1],,4^7[12:1],,7p1[12:1],,Chf[24:6],,,,,,
,,3,5,4,6,5h[12:2],,{48}E6,E7,E8,E1,E2,,,,
{24}1x/3x,,2,5,1,6,8h[12:2],,{48}E5,,,,E7,,,,
{24}8x/6x,,5,7,4,8,2h[12:2],,{48}E2,E3,E4,E5,E6,,,,
{24}8x/6xh[12:1],,5h[12:1],,4h[12:1],,3h[12:2],,B2/A2,,E1/D1,,
7xh[12:1]/5x,,{48}5,4,3,2,{24}18,,8/6h[12:1],,5h[12:1],,4,,
2xh[12:1]/4x,,{48}4,5,6,7,{24}82,,1/3h[12:1],,4h[12:1],,5,,
6xh[12:1]/5x,,{48}5,4,3,2,{24}18,,6xh[12:1]/8x,,{48}1,2,3,4,{24}57,,
{48}7xV15[24:3]/5x,4,3,2,1x,8,7,6,5x,4,3,2,{24}1bx,,,,,,
6h[12:2],,5h[12:1],,,,1h[12:2],,3h[12:1],,,,
7h[12:2],,5h[12:1],,,,3h[12:2],,4h[12:1],,,,
6pp4[24:5],,5,,4,,3h[12:2],,,,,,
3q5[24:5],,4,,5,,6h[12:2],,,,,,
8hb[12:2],,5,3,1h[12:1],,7h[12:2],,6,4,2h[12:1],,
6h[12:2],,5,4,3h[12:1],,5h[12:2],,4,4,4h[12:1],,
7pp4[12:3],,,,,,4>5[12:6],,,,,,E3,,,,,,,,,,,,
1hx[2:1],,,,,,,,,,,,4-1b[24:2],,6,85,,3,5bh[12:2],,,,,,
{48}7b/1bqq4[16:3],,,,6,5,4,3,2,1,8,7,6bx,,,,4,,,,5,,,,
3bpp6[16:3]/6,,,,7,6,5,4,3,2,1,8,7bx,,,,{24}1,,8^5[16:1],,
{48}7bx,,,,1x,2x,3x,,4x^1[16:1]/8x,,,,3bx,,,,5x,6x,7x,,4x/8x,,,,
7pp4[16:3],6,5,4,6,5,4,3,5h[24:6],,,,{48}7bx,,,,,,,,,,,,
4bpp5[12:1],,,,5,6,7,8,4,3,2,1,
8h[24:2]/4x^1[16:1],,,,,,,,6,,,,
5bpp7[12:1]/4,,,,6,7,8,1,5,4,3,2,
1h[12:1]/5>6[12:2],,,,,,,,7,,,,
{24}1bh[24:4],,,,,,5<4[24:5]/4,,12,,86,,7h[24:4],,,,,,
{48}1,2,3,4,5,6,7,8,1,2,3,4,
5pp1[16:3]/1b,,,,1,8,7,6,5,4,3,2,1bx,,,,2,,,,3,,,,
7bpp5[16:3]/4,,,,5,6,7,8,1,2,3,4,5bx,,,,3,,,,1p4[16:1],,,,
5,6,7,8,1,2,3,4,5bxp8[16:1],,,,8,7,6,5,4,3,2,1,8bx,,,,
6,5,4,3,2,1,8,7,46,,4,,{48}6,7,8,1,7,8,1,2,3x/8x,,,,
{48}8xh[12:1]/2x,3,4,5,6,7,8,1,2x/6x,,,,
{48}2xh[12:1]/7x,6,5,4,3,2,1,8,7x/3x,,,,
{48}8xh[12:1]/3x,4,5,6,7,8,1,2,3x/8x,,,,
{48}1xh[48:3]/5x,4,3,2,1,8,7,6,5x/1x,,,,
{48}3pp5pp7[16:3],4,5,6,2,3,4,5,1,2,3,4,E1f,,,,,,,,,,,,
{24}1b/8b,,3,2h[12:1]/4,,1,
8/3h[12:1],,5,4h[12:1]/6,,7,
7h[24:1],8h[24:1],5h[24:1],4h[24:1],1h[24:2],,
3h[24:1],5h[24:1],4h[24:1],6h[24:1],5h[24:2],,
8h[12:1],,6,7h[12:1]/5,,8,
1/6h[12:1],,4,5h[12:1]/3,,2,
2h[24:1],4h[24:1],3h[24:1],8h[24:1],5h[24:1],6h[24:1],1w5[24:1],3,46,,78,,
{48}1b,,,,37,,,,4,,6,5,
6,,7,8,7,,2,1,2,,38,,
4x,,7,5,6,,3,4,2,,18,,
7h[24:1],,5h[24:1],,4h[24:1],,2,,18,,,,
3bx/7bx,48,51,62,7,8,1,2,3b/7b,,,,
7bx/3bx,62,51,48,3,2,1,8,7b/3b,,,,
1x/5bx,2,3,4,5/1bx,6,7,8,1/5bx,2,3,4,
{64}8bx,7,6,5,4,3,
2,1,8,7,6,5,
{384}8x,,,,7x,,,,6x,,,,5x,,,,4x,,,,3x,,,,
{384}8bxq8[8:2],2bx>6[8:2],
