&title=举头三尺天气晴
&artist=Triodust & クエン酸P feat.パロト
&first=0
&des=Yan Shu-Chi
&lv_6=13+
&inote_6=(160)
{1},,
{16}
7h[2:3]/2h[1:1],,,,,,,,,,,,,,,,
,,,,,,,,8^2p6q3[4:7],,,,,,,,
Ch[1:1],,,,,,,,,,,,,,,,
,,,,,,,,E5,,,,,,,,
43,,,,43,,,,65,,,,65,,,,
24,,,,53,,,,64,,,,75,,,,
42,,1,,75,,8,,53,,1,,64,,8,,
2,4,3,5,4,6,5,7,2,1,3,8,7b/4b-1[8:1],,,,
46,,,7,8,,1h[4:1]/6,,,,4,,4-7[8:1],,,,
42,,,2,8,,1,,8,,46,,3-8[8:1]/7,,,,
35,,,7,8,,1h[4:1]/6,,,,4,,4-7[8:1],,,,
2-6[8:1]/4,,,8,2,,8,,1x/5x,4,3,2,5x,6,7,8,
1b/2b,,,2,1,,8h[4:1]/3,,,,5,,5-2[8:1],,,,
57,,,7,1,,8,,1,,53,,6-1[8:1]/2,,,,
64,,,2,1,,8h[4:1]/3,,,,5,,5-2[8:1],,,,
8-4[8:1]/5,,,1,8,,1,,2x/6x,3,4,5,8x,7,6,5,
4b-7[8:1]/3,,,,2,,,,1-5[8:1],,1,,6,,,,
8V64[4:1],,,,4V28[4:1],,,,8,,,,E4/E5/B4,,,,
6/5-2[8:1],,,,7,,,,8-4[8:1],,8,,3,,,,
2^7b[4:1],,,,7^2b[4:1],,,,6,,,,4,,4,,
3-6[8:1]/5,,,,6,,,,8-4[8:1],,8,,3,,,,
1^4[8:1],,,,4,,,,8^5[8:1],,,,5,,,,
2xq3[4:1],,,,5,,,,7xp6[4:1],,,,4,,,,
4xq5[4:1],,,,5x<4[8:3],,,,8x,,,,5,,,,
7b/5b-1[8:1],,,,6-8[8:1],,,,5,,4,,4/8x,,,,
3-6[8:1],,5,,3,,,,7-3[8:1],,8,,7,,,,
2/4-8[8:1],,,,3-1[8:1],,,,4,,5,,5/1x,,,,
6-3[8:1],,4,,6,,,,2-6[8:1],,1,,2,,,,
7/5-2[8:1],,,,6-1[8:1],,,,5,,4,,4/8x,,,,
2-6[8:1],,1,,25,,,,7-3[8:1],,8,,74,,,,
1/5^8[8:1],,,,3,,4,,5^2[8:1],,,,6,,5,,
4-7[8:1],,,,4/1-5[8:1],,,,8-3[8:1]/1,,,,8/2qq5<4b[4:7],,,,
Cf/B6/B5/B4/B3,,,,,,,,,,,,,,,,
,,,,,,,,5,,,,,,,,
6pp8p4[2:3]/1qq7q3[2:3],,,,,,,,,,,,,,,,
,,,,,,,,,,,,,,,,
4h[8:3]/5,,,,,,3>6[8:9],,,,,,E6,,E5,,
E4,,,,,,,,,,,,,,,,
1h[4:3],,,,,,7h[8:3],,,,,,,,,,
3V16[2:1]/6V83[2:1],,,,,,,,,,,,,,,,
3,6,4,5,2,7,4,5,3,6,4,5,1bw5[8:1],,,,
B1`C`B4/B5f/B6,,,,78,,3,4,2-6[8:1],,15,,2^7[8:1]/6^3[8:1],,,,
A1/A5,,,,26,,7,5,6^1[8:1],,12,,4h[4:1]/6,,,,
3-7[8:1],,,,1^4[8:1]/3,,,,81,,8w4[8:1],,,,8,,
,,26,,26,,7,5,6,3,4,2,8qq6[8:1],,,,
8/2pp4[8:1],,,,27,,1,,8/3h[4:1],,,,2-6[8:1],,4/6-2b[8:1],,
,,8,,8,,7,1,7p3[8:1]*q3[8:1],,26,,7,,,,
4-8[8:1],,,,4/1-5[8:1],,,,1^6[8:1]/5^2[8:1],,,,1x/5x,,,,
1p5[8:1]/8^5[8:1],,,,8q4[8:1]/1^4[8:1],,,,1p5[8:1]/8^5[8:1],,,,1/8w4[8:1],,,,
8b`B7`B2`B5/B4/E5f,,,,21,,6,5,7-3[8:1],,84,,7^2[8:1]/3^6[8:1],,,,
A8/A4,,,,73,,2,4,3^8[8:1],,87,,5h[4:1]/3,,,,
6-3[8:1]*-1[8:1],,,,6,,,,8b-5[8:1],,5bw1[8:1],,8b,,B5f/C/B1/A1,,
,,37,,3/7h[4:1],,,,8,7,1,6,2,5,3,4,
2qq1[8:1]/5,,,,6,,6,,3/6qq5[8:1],,,,2,,2,,
2/8p3[8:1]*q5[8:1],,,,8,,,,4q1b[8:1]/6p1b[8:1],,,,46,,,,
28,,37,,46,,3,4,2,,6,5,7,,18,,
2,4,3,5,4,6,5,7,5pp5[4:1]*qq5[4:1],,,,5b>6[1:3],,,,
,,,,,,,,,,,,,,,,
,,,,3q5b[2:3],,,,,,,,,,,,,,
