&title=MAdEaR MAdEaR
&artist=SLAVE.V-V-R feat. 東雲はる
&first=0.04
&des=reflectW
&clock_count=4
&lv_6=12+
&inote_6=(200)
{1},,
{8}2h[4:1]/8h[4:1],,,2h[4:1]/8h[4:1],,,28,,
{8}6h[4:1]/4h[4:1],,,6h[4:1]/4h[4:1],,,6>7[4:6]/4,,
{8}2pp6[4:5],,,,,,,,
{8},,,,,,,,
{8}1pp4[4:5]/5pp8[4:5],,,,,,,,
{8},,,,,,,,
{8}3q5[4:5]/7q1[4:5],,,,,,,,
{8},,,,,,,,
{8}1s5[4:2]/8z4[4:2],,,,,,,,
{8}3b/4b,2b/5b,6h[8:1],4,5h[8:1],3,4h[8:1],2b-4[8:1],
{8},5-1[8:1],6,7^4[8:1],,2,2,,
{8}6b/5b,7b/4b,3h[8:1],5,4h[8:1],6,5h[8:1],7b-5[8:1],
{8},4-8[8:1],3,2^5[8:1],,7,7,,
{16}3b/4b,,2,1,2,,38,,56,,7,8,7,,61,,
{16}28,,7,5,7,,46,,17,,2,4,2,,3qq1[4:2]/5pp7[4:2],,
{8},,,,,,,3qq2[4:2]/5pp6[4:2],
{8},,,,,,,3qq3[4:2]/5pp5[4:2],
{8},,,,,,,3bqq4[8:5]/5bpp4[8:5],
,,,,,,,8b,
{16},,3,,2h[4:1]/4,,,,5-7[8:1],,,,1-3[8:1],,,,
8p4[8:1],,,,3,,3^8[8:1],,,,5h[4:1],,,,7-3[8:1],,
,,,,,,4-1[8:1],,5,,64,,,,8>6[16:5]/7qq6[16:5],,
,,,,,,,,,,7h[4:1]/5h[4:1],,,,,,
2b/8b,,2b/8b,,2b/8b,,8b-4[8:1]/2b,,,,8/6-8[8:1],,,,6b/5b,,
{16},,6,,7h[4:1]/5,,,,4-2[8:1],,,,8-6[8:1],,,,
1q5[8:1],,,,6,,6^1[8:1],,,,4h[4:1],,,,2-6[8:1],,
,,,,,,5-8[8:1],,4,,35,,,,1,,1^4[8:1],,
5,,5pp5[16:4]*p5[16:4],,,,,,,,,,,,
4h[4:1],,,,5<1[4:1],,,,1V75[4:1],,,,5,,,,
2h[4:1],,,,1>5[4:1],,,,5V31[4:1],,,,7,,,,
6h[4:1],,,,1-4[8:1],,,,6-1[8:1],,,,3-6[8:1],,,,
8-3[8:1],,,,5-8[8:1],,,,2-5[8:1],,,,7-2[8:1]*-4[8:1],,,,
,,,,3h[4:1],,,,4-1[8:1],,4,,5-8[8:1],,,,2^7[8:1],,2,,,,5,,5>1[16:3]*<1[16:3],,,,5b,,,,
{32},,,,,,,,1-5[8:1]/8,2,3,,,,,,8,7,6,,,,,,1-5[8:1]/8,2,3,,,,,,8,7,6,,,,,,1-5[8:1]/8,2,3,,,,,,8,7,6,,,,,,8b/3h[8:1],,,,,,,,,,,,,,,,
8-4[8:1]/1,7,6,,,,,,1,2,3,,,,,,8-4[8:1]/1,7,6,,,,,,1,2,3,,,,,,8-4[8:1]/1,7,6,,,,,,1,2,3,,,,,,1b/6h[8:1],,,,,,,,
{16},,3/4q5[8:3],,3>6[8:2]/4,,,,,,,,,,12,,,,7/4qq1[8:3],,7^4[8:2]/4,,,,,,,,,,37,,
,,2q5[8:3]/8,,2/8-5[8:2],,,,,,,,,,,,
3b/7b,,37,,48,,{32}48,,,,5p1[8:1]/1p5[8:1],,,,51,,,,,,,,,,,,
{32}2-5[8:1]/6-1[8:1],,,,,,,,{16}26,,,,{32}4-1[8:1]/8-5[8:1],,,,,,,,{16}48,,,,
{32}2-4[8:1]/4-8[8:1],,,,,,,,{16}24,,,,{32}7-5[8:1]/5-1[8:1],,,,,,,,{16}75,,,,
4-6[8:1],,,,5-3[8:1],,,,4-7[8:1],,,,5-2[8:1],,,,
4-8[8:1],,,,5,,,,{32}1,2,3,4,5,6,7,8,1-5[8:1],,,,,,,,
{32}6-8[8:1]*-1[8:1],,,,,,,,{16}6,,,,{32}3-1[8:1]*-8[8:1],,,,,,,,{16}3,,,,
{32}7-4[8:1]*-5[8:1],,,,,,,,{16}7,,,,{32}2,3,4,5,6,7,8,1,{16}25,,5h[8:2],,
,,2-4[8:1],,2,,1,,7-5[8:1],,7,,8,,3h[4:1],,
,,4-8[8:1],,5,,4,,{32}7,6,5,4,3,2,1,8,7/3,,,,,,,,
{32}7-4[8:1]/3-8[8:1],,,,,,,,{16}73,,,,{32}5-8[8:1]/1-4[8:1],,,,,,,,{16}51,,,,
{32}7-5[8:1]/5V31[8:1],,,,,,,,{16}75,,,,{32}2-4[8:1]/4V68[8:1],,,,,,,,{16}24,,,,
1-7[8:1],,,,8-2[8:1],,,,1-6[8:1],,,,8-3[8:1],,,,
1-5[8:1],,,,8,,,,{32}4,3,2,1,8,7,6,5,4-1[8:1],,,,,,,,
{32}7v4[8:1]*qq5[8:1],,,,,,,,{16}7,,,,{32}2v5[8:1]*pp4[8:1],,,,,,,,{16}2,,,,
{32}3v8[8:1]*qq1[8:1],,,,,,,,{16}3,,,,{32}6,5,4,3,2,1,8,7,{16}64,,4h[8:2],,
,,7-5[8:1],,7,,8,,2-4[8:1],,2,,1,,6h[4:1],,
,,5-1[8:1],,4,,5,,{32}2,3,4,5,6,7,8,1,2/6,,,,,,,,
{16}2V41[8:4],,,,8,,,,7,,,,6,,,,
5pp1[8:4],,,,1,,,,2,,,,3,,,,
{32}4b/8b-4[8:1],,,,2b/6b,,,,,,,,,,,,1b-5[8:1]/5b,,,,3b/7b,,,,,,,,,,,,4b/8bw4[8:1],,,,2b/6b,,,,,,,,,,,,1b-5[8:1]/5b,,,,3b-7[8:1]/7b,,,,,,,,
{16}3<3[8:5]*>3[8:5],,,,,,,,,,,,,,,,,,2h[8:6]/6h[8:6],,,,,,,,,,,,,,,,
4w8[8:1]/8,,4/8v5[8:1]*v3[8:1],,
