&title=7thSense[DX]
&artist=削除
&first=0
&des=Cyanide.
&des_5=Cyanide.
&lv_5=14+
&inote_5=(150){4},{1},{4},,{32}1/5,
8,7,6,5,4,3,2,
1,8,7,6,5,4,3,2,{12}1,7,2,6,3,5,4/C,{4},,{16},{96},{32}8/1,
7/2,6/3,{2}5b/4b<3[1:3],
B3,C,
E5,B6,
C,{4}8bx,7-3b[8:1],
{32},B7,{16}B3,,,,,{8}1h[4:1],,3-6[8:1],,8,
,2,,5/1,{4}3v8-2[4:1]/7-4-6b[4:1],3/7,
{8},8h[4:1],,6-3[8:1],,1,,7,
,4/8,{4}6v1-7[4:1]/2-5-3b[4:1],{8}6/2b,,,1h[4:1],
,3-6[8:1],,8,,2,,5/1,
{4}3-6-4b[4:1]/7-2-8[4:1],3/7,{8},6h[4:1],,2-4<5[8:1],
,2/6-8>1[8:1],,6/5,,1/5,{16}8/4,3/7,2/6,1/5,
{8}4bx/8bx-4b[8:1],{16},,,,,,,,6/3h[16:1],7,,,6/2h[16:1],5,
,,{8}4/8,2,6h[4:1],7,{16}5,4,{4}7/3>2-8[8:1],
{8},7x<6-4[16:3],,5x-3>2[16:3],,1bx<8-6b[16:3],,7bx-5>4b[16:3],
,7xh[8:1],{16},,3,2,{2}1V73[4:1]/5V37[4:1],
{8},4,8,2/6,,,,2/7,
{4}1/6<1[8:1],{24}1/6,2,3,4p2[4:1],,,,,,{8}8,,7,
,6x/8x,,5x/7x,,4b,{4}2b-5-3-1[4:1],
8x,6x,4xv7[8:1]/8xv3[8:1],4b/8b,
{16}6,2,,,{8}4/8,{16}7,5-1[8:1],,3,,2-6[8:1],,,{8}2x,
{16}7,7,,4-8[8:1],5,3,6,4-2[8:1],,6,{8}6,{16}5,5,,,{8}8/4,
{16}6,1-5[8:1],,7,,6-2[8:1],,,{8}6x,{16}3,3,,8-4[8:1],
1,7,2,8-6[8:1],,2,{8}2,{16}1,1,,,{8}6/2,{16}3,5-1[8:1],
,7,,8-4[8:1],,,{8}8x,{16}2,2,,6-2[8:1],5,7,4,6-8[8:1],
,4,{8}4,{16}5,5,,,{8}5/1,{16}7,4-7[16:1],,6,,1-5[16:1],
,,{8}1/8,{16}7-3[16:1],4,,7,{8}5x-1[16:1],2x,{16}5x/8x,7,,2,
5,4,7,4,5,2,5,4x,6,4x,7,4x,,,{8}2/6,
{16}3,4,2,5,4,6,3,7,{8}2,2,{16}6,4,7,4,
5,2,5,4x,6,4x,7,4x,,,{8}2/6,{16}1/5,2,3,4/8,
7,6,{8}5/1,,4/7,{16}2/5,3,4,5/1h,6,7,8,1/5h,
,3/7,,1/5,,,{8}2/4,{16}6,5,,5,7,4,7,3,
{8}7,2/6,{16}4/8,,,3/7h[16:3],,,5,6,7,8,1,2,
{8}3/5,6/4,{24}7,5,6,5,{48},,,,{16}3,4,2,5,3-7[16:1],,,3x/8-2[16:1],
,,{8}8/3-5[16:1],{16},3x/6-2[16:1],,,{8}6/8,7,{16}1/8,1/7,1/6,1/5,
4/1-5[16:1],,,6/1x,,,{8}4/7-3[16:1],{16},7x/1,,,{8}2-6b[16:1],4,
{4}4b-1[16:1],{16}4/8-4[16:1],,,8x/2-6[16:1],,,{8}5-3[16:1],7,8,
1,2,3/4-8[16:1],5,2,{24}1,7,2,{8}6,3/5,
{16}6,4h[8:1],,7,{8}1h[8:1],6,{16}7/2,3,4,5,1/6-2[16:1],,,6x/7-4[16:1],
,,{8}7x/1-5[16:1],{16},1x/7-3[16:1],,,{8}6,5,{16}1b,1b,{8}1b,
{16}8/2-6[8:1],,,7,{8}2,8,{16}1/5>2[8:1],,,1,{8}5-1b[16:1],7,
{4}7b-5[16:1],{8}2,{24}2,4,3,{8}4,6,{12}5,4,3,
{8}2,1,2/8,3/7,6/4,{24}6,5,6,{8}5,4h[8:1],
{16}5,6/3h[8:1],,4,{4}2/5,{16}1,8,2,7,{4}3q5[8:3],
6,7,8,{24}8,7,6,5h[8:1],,,,,,7,
6,5,{8}4h[8:1],1,8,7,{4}3/6q8[8:3],
{24}1,2,3,4h[8:1],,,,,,5,4,3,{4}2h[8:1],{24}1b/8b,7/2,6/3,5/4p3[8:3],,,,,,{8}8,
,7,{4}7h[4:1],{16}1,8,3,4,
2,5,{8}4,{24}5bx/4bxqq5[8:7],3b/6b,2b/7b,1b/8bqq1b[8:7],{1},{16},,,{48},{16}4,
8,3,7,{8}2b-6[8:1],
,2/7,{16},,6,7,4,5,{8}2,{4}3/1bp5[8:1],
1/2h[4:1],{16}3,2,5,4,{8}7,6/8b-4[8:1],,8/4,
{16}3,5,2,6,5,7,4,5,{4}3/6b-2[8:1],{8}6/4-8[8:1],3,
4/5,6,7,{16}1,8,3,4,2,5,1,8,4,7,
5,6,{8}4,{16}4,5,2,1,3,8,4,5,8,7,2,5,
{24}3,4,3,5,{48},{16}2,6,1,{24}7,8,7,{16}1,6,2,5,{24}3,4,3,5,{48},{16}4,
{24}6,5,6,4,5,4,7,5,6,4,5,3,{16}6,4,7,3,6,2,{8}4b-8[8:1],
,2/4,{16},,6,7,5,8,{8}4,{4}3/5b-1[8:1],
5/7,{16}3,2,4,1,{8}5,6b/2b-5[16:1],{16},2b/8b-4[16:1],,,8b/1b-6[16:1],
,,3b-7[16:1],,,{8}1b-5[16:1],{16},8b-6[16:1],,,4b-2[16:1],,,5b,
6b,7b,,,,1,8,2,7,3,6,5/4-7[8:1],,,,4/2,
,1-5[8:1],,,,1/8,,7,,6/4,,Ch[2:1],,,,B8,
,,,B6,,,,4b/5b,,,,6b/7b,,,,8b/1b,
,,,2b/3b,,,,5b/6b,,,,8b/7b,,,,2b/3b,
{48},,,4,,5,,6,,{16}2b/7bp4<7[1:3],,,,,,,,,,,,,,,,E8,
,,,,,,,E3,,,,,,,,E2,
,,,,,,,C,,,,,,,,E4,
,,,,,,,4/7,,6/5,,,,2/5,
,3/4,,,,,,4/8,,,,5/7-4[8:1],,,,3/7,
,2-6[8:1],,,,2/1,,7-3[8:1],,,,8/7,,2>2>8[16:11],
,,,,,,,,,,,,,,,1,
2,3,4,5/1,,7,8,6,,8/6,,,,5,4,5,
3,5,2,7,5,6,4,{48}5,,2,,6,,{16}3,,3h[8:1],,4,5,2/6<7-1[8:1],
,,,,,2x>3-5b[16:3],,,,4x-6<7b[16:3],,,,8bx>1-3[16:3],,,,2bx-4<5[16:3],
,,,2xh[8:1],,,,6,7,8V26[4:1]/4V62[4:1],,,,,,,,,,5,
,1,,7/3,,,,,,,,7/2,
,8/1,{48},,,,,,,,,1b/5,2,3,,,,,,,1b/6,2,3,4,,,,,,1b/7,2,3,4,5,,,,,,,,1,
,8,,1,,8,,1,,8,,1,2,3,4,5,6,7,8,1,2,3,4,5/1,8,7,6,5,4,3,2,1,8,7,6,5/1h[8:1],{96},,,,,,,,,,{32}2b,3b,
4b,5b,6b,7b,{8}8b/1b,
