&title=Operation☆DOTABATA!
&artist=Mitsukiyo
&first=-0.806
&des=ItsPrisma
&lv_5=13+
&des_5=ItsPrisma
&inote_5=
(140){4},{8},,,,,,6,
5,6,{16}4,5,,3,,2,,7,8,7,
{8}8,6,1,{16}5,4,,5,,3,6,3,7,2,
{8}7,1,8,{16}3,4,,5,,6,{8}2,2,
7,8/1,2,{16}6,3,,5,,5,{8}5,6/4,
7/1>4[8:1],{16}8,7,{8}1,6,5<8[8:1],{16}4,3,{8}5,2,
7-3[8:1],{16}8,6,{8}7,1,2-6[8:1],{16}1,8,{8}2,7,
4>1[8:1],3,5<8[8:1],6,4,3,{4}2/7,
{8}8/1-6[8:1],2,1/8-3[8:1],7,{4}8/1,7b/2b,
{16}6,3,6,2,{8}6<1[8:1],4/5,{4}6/2>5[8:1],{8}2/1,8,
{16}7,4,7,5,{8}7-3[8:1],2/8,{4}7/1-4[8:1],1/8,
{16}3,7,3,8,{8}3-7[8:1],5/4,{4}3/6-2[8:1],{8}6/3,4,
{16}8,1,8,2,{8}8v5[8:1],1-3[8:1],8-6[8:1],1v4[8:1],8,1,
{16}7,2,8,1,{8}7-5[8:1],5/4,{4}7/3-8[8:1],{8}3/5,6,
{16}2,1,3,8,{8}2<7[8:1],6/3,{4}2/5>2[8:1],{8}6/5,7,
{16}3,5,4,6,{8}3-6[8:1],8/2,{4}3/7-4[8:1],{8}7/1,2,
{16}8,1,7,2,{8}8-4[8:1],2-6[8:1],8-6[8:1],2-4[8:1],8,2,
{16}7b,3,8,4,{8}1-5[8:1],7/3,1/6-2[8:1],7,6/1,8,
{16}7,3,8,4,{8}1-6[8:1],8/2,1/8-4[8:1],7,8,2,
{16}3,7,4,8,{8}5-2[8:1],6/4,5/7-4[8:1],8,7,1,
{16}6,4,5,3,{8}4-6[8:1],4-2[8:1],4-7[8:1],4-1[8:1],4,4,
{16}8,2,7,3,{8}6-3[8:1],5/4,6/2-7[8:1],1,2,5,
{16}6,4,7,3,{8}8-5[8:1],7/2,{4}8,{8}8/7,{16}4,3,
{8}5/2,6/5,7/4,6/2,7/1,8/3,1/4,2/7,
{4}5p8[8:1]/4q1[8:1],5/4,{2}6h[4:1]/3h[8:3],
{8}5h[8:3],{16}B2,B3,B4,,,3h[2:1],,,{8}B8,B7,B6,
7h[8:3],{16}B5,B4,B3,,,2h[2:1],,,{8}B6,B7,B8,
6h[8:3],{16}A1,A2,A3,,,1h[2:1],,,{8}A4,A5,A6,
7h[8:3],{16}A5,A4,A3,,,2h[2:1],,,{8}A1,A8,A7,
{16}5h[8:1],,,4h,5h[8:1],,,3h,5h[8:1],,,2h,5h[8:1],,,1h,
6h[8:1],,,8h,7h[8:1],,,1h,6h[8:1],,,2h,{4}5h[8:1],
{16}3b,6,5,6,2b,6,5,6,1b,6,5,6,8b,6,5,6,
{8}7b-3[8:1],2-6[8:1],7,2,{16},8/1,,2/7,{8}2/7,{16}2,8,
{8}1-5[8:1],5-2[8:1],6/1,7,{16}8-3-6[4:1],1,,1,{8}8,4,
{16}5-1[8:1],5,7>2[8:1],7,{8}5,7,{16},3,{8}3,{16}1x-3-7[4:1],8x,7x,6x,
{4}1/5x-2[8:1],{8}5,{16}8,8,,1,,1,{8}7-2-4[4:1],2,
4-8-5[4:1],1,{16}2,,,3,,1,,1,{8}1bx,{16}8x,7x,
{8}6-2[8:1],2-4[8:1],6/1,8,{16}1-3-7[4:1],5,,5,{8}1,6,
{16}4-8[8:1],4,2-6[8:1],2,{8}4,2,{16},7,{8}7,{16}8x-2-6[4:1],1x,2x,3x,
{4}8/4x-8[8:1],{8}4,{16}7,7,,4,,4,{8}6-8-4[4:1],2,
4-7-2[4:1],3,{16}1,,,3,,4,,4,{8}4bx,{16}6x,5x,
{8}4-7[8:1],7-3[8:1],4/2,1,{16}8-6-2[4:1],4,,4,{8}8,5,
{16}6-3[8:1],6,1-5[8:1],1,{8}6,1,{16},7,{8}7,{16}8x-2-4[4:1],7x,2x,3x,
{4}8/4x-6[8:1],{8}1,{16}8,8,,2,,2,{8}5<1[4:1],3,
1-6-3[4:1],4,{16}2,,,2,,1,,1,{8}1bx,{16}3x,4x,
{8}5x-2[8:1],2-6[8:1],1/5,8,{16}7-5-2[4:1],4,,4,{8}7,1,
{16}8-3[8:1],8,7-4[8:1],7,{8}8,7,{16},2,{8}2,{16}3,3,4,4,
1b,4,3,4,8b,4,3,4,7b,4,3,4,6b,4,3,4,
{8}2b-6[8:1],8-4[8:1],2,8,{16},3/7,,6/2,{8}2/6,{16}4,5,
{8}4h[4:1],6,5h[4:1],3,{16}2,7,,7,{8}1,1,
{16}8,8,7,7,6,6,5,5,,7,,8,,2,1,2,
{8}1h[4:1],3,4h[2:1],{16}6,6,,7,,8,{8}8,3,
2h[4:1],5,4,{16}1,8,,3,,3,{8}3,8,
4h[4:1],6,7h[2:1],{16}2,2,,3,,4,{8}4,6,
{16}1,1,2,2,3,3,4,4,,6,,7,,1,8,1,
{8}8h[4:1],3,4h[2:1],{16}6,6,,7,,8,{8}8,3,
5/6,8,3/4,{16}1,8,,4,5,4,{8}5,{16}3,4,
{8}3-7-4[4:1],8,3/7,1,{16}8-6-4[4:1],3,,3,{8}8,2,
{16}1,1,8,8,2,2,7,7,,5/4,,6/3,,1,8,1,
{8}7-5-1[4:1],2,7,{16}3,3,,4,,4,{8}4-2[8:1],5-7[8:1],
4,5,{16}2h[16:7],,,8,,6,,4,,,3,5,
{8}3-1-5[4:1],1,8/3,7,{16}6-2-8[4:1],4,,4,{8}6,3,
{16}4,4,5,5,3,3,6,6,,7/2,,1h[16:3]/8h[16:3],,,,,6b,
4,5,4,7b,4,5,4,8b,4,5,4,1b,4,5,4,
{8}5-8[8:1]*-2[8:1],6/4,{4}5,{16},3/6,,3/6,{4}3/6,
{8}5h[4:1],3,4h[4:1],6,5h[4:1],2,4h[4:1],7,
8-5[8:1]*-3[8:1],7/1,{4}8,{16},8b/4bx,,2b/6bx,{4}6b/2bx,
E
