&title=Constellation
&artist=Maozon
&first=0.02
&des=JAZZANA
&lv_5=13
&inote_5=(140.01)
{1}
,
{16}
2,,,3h[16:1],,,4h[8:1]/6,,5,,,4,3,,2,,3V15[4:1]/5,,,6,,,7,,8V26[4:1],,,5,,,4,,
3h[16:3],,,4,,,45,,6h[16:3],,,1,,,27,,8-4[4:1],,,2,,,2,,1-5[4:1],,,8,,,8,,
{16}
7,,,6,,,24,,2-5[8:1],,,5,2,,1,,8,,,8,,,75,,7-4[8:1],,,4,7,,8,,1,,,25,3,,5h[8:1],,2,,,74,6,,4h[8:1],,7,,,2,8,,17,,2,2,,4,3,5,4b,,
{16}
3h[4:1],,1,,4h[4:1],,1,,3,,5,4,,6,4,7,5,,6h[8:1],,4h[8:1],,5h[8:1],,3h[8:1],,5,5,,4,6,5,7h[4:1],,
5,,8h[4:1],,5,,6,,1,7,,8,1,7,8,,6h[8:1],,1h[8:1],,8h[8:1],,3h[8:1],,8,8,,1,7,1,7,,
17,,26,,35,,4,,3,4,,3,4,3,2,,28,,73,,46,,5,,6,5,,6,5,7,8,7,8,7,1,6,1,6,2,5,2,5,3,4,3,4,3V17[4:1],,,,7V53[4:1],,,,,,,,,8b,2,7,
{16}1-6[8:1],,,7,1,,,,5-8[8:1],7,4,,53,,,,
{16}2-5[8:1],,,1,2,,,,7,4,6h[8:1]/3,,,,2b,,
{16}8-3[8:1],,,2,8,,,,4-1[8:1],2,5,,46,,,,
{16}7,,8,,78,,6,4,,3,6,3,4>2[8:1]/5<7[8:1],,,,
{16}4/5,,,,81,,1,7,2,6,3,5,4,5,3,,5h[8:1],,3,26,
{16},,1h[8:1],,8-5[8:1],27,,,8z4[8:3],,,,
{16}86,,,7,7,,,,5-1[8:1],4,6,,7-5[8:1]/5-3[8:1],,,,75,,,,
{24}6,4,6,4,,,37,,,1,8,1,8,,,27,,,
{16}1b,,,8,3h[8:3],,2,,4,,5,,4,4,6,3,5,4,3,,5,4,2,,5,4,1,,5-2[8:1],4,8,,
{16}57,,,6,6h[8:3],,7,,5,,4,,5,5,3,6,4,5,6,,4,5,7,,4,5,8,,4-7[8:1],5,1,,
{16}24,,,3,,3,,25,,6,,2,8,1,7,1,8,2,,37,,37,,26,,26,,1,,8,8,,
{16}12,,38,,47,,65,,87,,16,,25,,34,,
{32}1/8b,2,3,4,,,8b/2,3,4,5,,,8/1b,7,6,5,,,1b/7,6,5,4,,,1V36[4:6]/5V72[4:6],,,,84,,,,
{1},,
{16}4h[1:1],,,,,,,,,,5,,,6,,,7<5[4:1],
{16},,,,,,,
{16},,3,,4,3h[16:2],,2,,,8,2,2,,7,1,8,,,17,,,6,5,,5,4,,23,,,21,,,18,,,17,7,7,,5,5,56,
{16},,45,,,45,,,3h[16:2]/4,,,3h[16:2]/4,,,2h[8:1]/8h[8:1],,,2h[8:1]/8h[8:1],,,1,,,8,7-3[8:1]/1,,,,7b/3V17[4:5]*V57[4:5],,,,,,,,,,,,,,,,
{1},8V64[2:1]/4V28[2:1],
{16}1pp3[2:1]/5pp7[2:1],,,,,,,,,,,,,,,,
{16}4h[1:1],,,2,3,,,,3,,,6,5,,,,5h[2:1],,,7,6,,,,6h[1:1],,,,,,,,7h[2:1],,,,,,,,,,,,,,2,4h[16:3],
{16}3,,,5-2[16:2],6,,,56,,7,,,2,8,1,7,2V83[16:4],,,6,,,5,,4,4h[16:2],,5,5h[16:2],,6h[8:1],,8,7,,5,6,,4>1[8:1],,1v6[8:1],,,8,,,7,,
{16}7h[16:3],,,5h[16:3],,,4,,3,4,,4,5,,45,,5/6<8[8:1],,,4,,,3,,1/2>4[8:1],,,8,,,7,,
{16}7V16[16:4],,,3,,,4,,5,5h[16:2],,4,4h[16:2],,3h[8:1],,1,2,,4,3,,5<8[8:1],,8v3[8:1],,,1,,,2,,
{16}2h[16:3],,,4h[16:3],,,5,,6,5,,5,4,,54,,4/3>1[8:1],,,5,,,6,,7b/8b,,,2b/4b,,,6b/5b,,
{16}4>1[8:1],5,,5,4,,6,,7-3[8:1],8,,8,7V52[4:1],,1,,7/2-6[8:1],,,3h[16:3],,,,,1-5[8:1],8,,2,1,,3,,
{16}5<8[8:1],4,,4,5,,3,,2-6[8:1],1,,1,2V46[4:1],,8,,2/6-3[8:1],,,7h[16:3],,,,,26,,,34,,,4<1[8:6]/5<1[8:6],,3b/4h[4:1],,,,,,,,,,,,,,,,2b-5[8:1]/7b-4[8:1],,,,,,,,3b/6b,,,1b/7b,,,2b/8b,,
{16}31,,3,,81,,8,,16,,1,,65,,4,,3h[16:2]/7h[16:2],,,,
{24}8,2,8,2-5[8:1],,,5b-1[8:1],,,,6,,,,,7,,,
{16}8h[4:1],,5,,2h[4:1],,5,,8,,7,1,,5,3,6,4,,5h[8:1],,6h[8:1],,7h[8:1],,8h[8:1],,7,7,,6,4,5,4,,
{16}35,,26,,17,,8,,7,1,,8,1,7,
{16}2,8,2,7,1,6,1,5,
{32}2,3,4,5,6,7,8,1,
{32}27,6,5,4,3,2,1,8,7b/3b,,,
