&title=失敗作少女
&artist=かいりきベア・MARETU feat.初音ミク
&first=0.02
&des=Tane
&freemsg=かいりきベア・MARETU feat.初音ミク
&wholebpm=
&des_1=Tane
&des_2=Tane
&des_3=Tane
&des_4=Tane
&des_5=Tane
&lv_1=2
&lv_2=4
&lv_3=7
&lv_4=10
&lv_5=13+
&inote_1=(235){1},
{4}3,,3,,
{8}3h[2:1],,,,
,,,,
{8},,,,
,,,,
{8}3h[2:1],,,,
,,,,
{4},,,,
{8}6h[2:1],,,,
,,,,
{8},,,,
,,,,
{8}6h[2:1],,,,
,,,,
{4},,,,
{8}3,,,,
,,,,
{8}7,,,,
,,,,
{8}3,,,,
,,,,
{4}8h[2:1],,,,
{8}6,,,,
,,,,
{8}2,,,,
,,,,
{8}6,,,,
,,,,
{4}1h[2:1],,,,
{2}1,,
{4}3,,,,
{2}5,,
{4}7,,,,
{2}8,,
{4}6,,,,
{2}4,,
{4}2,,,,
{2}1h[2:1],,
{4},,,,
{2}5h[2:1],,
{4},,,,
{2}8h[2:1],,
{4},,,,
{2}4h[2:1],,
{4},,,,
{1}3h[4:3],
{2},,
{1}6h[4:3],
{2},,
{1}3h[4:3],
{2}5,,
{1}6,,,,
{4}1,,,,
{4}4h[2:1],,,,
{4}5,,,,
{4}8h[2:1],,,,
{4}8,,,,
{4}5h[2:1],,,,
{1}34,,
{4}1,,,,
{4}8,,,,
{1}45,,
{4}18,,,,
{4}45,,,,
{1}56,
{8}34,,,,
,,,3b-6[2:4],
{4},,,,
{4},,,,
{4},,,,
{4},,,,
{4}6b<3[2:4],,,,
{4},,,,
{4},,,,
{4}3,,6,,
{2}4,,,,
{2}4,,,,
{2}3,,,,
{2}3,,,,
{4}2,,,,
{4}2,,,,
{4}1,,,,
{4}1,,,,
{8}2b,,,,
,,,,
{8},,,,
,,,,
{8}8b,,,,
,,,,
{8},,,,
,,,,
{4},,,,{4},,,,
{4},,,,{4},,,,
{4}1,,,,
{4},,,,
{4}3,,,,
{4},,,,
{4}8,,,,
{4},,,,
{8}6,,,,
,,,,
{8}3,,,,
,,,,
{4}1,,,,
{4}8,,,,
{4}4,,,,
{1}5h[2:1],
{4}5,,,,
{4}45,,,,
{1}24,,
{4}8,,,,
{4},,,,
{4}6,,5,,
{1}4,
{8}4,,,,
,,,,
{8}8,,,,
,,,,
{8}3,,,,
,,,,
{4}8,,2,,
{8}5,,,,
,,,,
{8}1,,,,
,,,,
{8}6,,,,
,,,,
{4}1,,7,,
{8}4,,,,
,,,,
{8}8,,,,
,,,,
{8}3,,,,
,,,,
{4}8,,2,,
{8}5,,,,
,,,,
{8}1,,,,
,,,,
{8}6,,,,
,,,,
{4}1,,7,,
{8}4,,,,
,,,,
{8}8,,,,
,,,,
{8}3,,,,
,,,,
{4}7,,2,,
{1},,,,,,,,
&inote_2=(235){1},
{4}3,,3,,
{8}3h[2:1],,,,
,,,,
{8}7h[2:1],,,,
,,,,
{8}3h[2:1],,,,
,,,,
{4}7h[4:1],,,,
{8}6h[2:1],,,,
,,,,
{8}2h[2:1],,,,
,,,,
{8}6h[2:1],,,,
,,,,
{4}2h[2:1],,,,
{8}3,,,,
3,,,,
{8}7,,,,
7,,,,
{8}3,,,,
3,,,,
{4}8h[2:1],,,,
{8}6,,,,
6,,,,
{8}2,,,,
2,,,,
{8}6,,,,
6,,,,
{4}1h[2:1],,,,
{2}1,2,
{4}3,,4,,
{2}5,6,
{4}7,,8,,
{2}8,7,
{4}6,,5,,
{2}4,3,
{4}2,,1,,
{2}1h[2:1],,
{4}3h[2:1],,,,
{2}5h[2:1],,
{4}7h[2:1],,,,
{2}8h[2:1],,
{4}6h[2:1],,,,
{2}4h[2:1],,
{4}2h[2:1],,,,
{1}3h[4:3],
{2}3,,
{1}6h[4:3],
{2}6,,
{1}3h[4:3],
{2}5,5,
{1}6,,6,,
{4}1,,2,,
{4}4h[2:1],,,,
{4}5,,6,,
{4}8h[2:1],,,,
{4}8,,7,,
{4}5h[2:1],,,,
{1}34,56,
{4}1,,2,,
{4}8,,7,,
{1}45,27,
{4}18,,18,,
{4}45,,27,,
{1}56,
{8}34,,,,
,,,3b-6[2:4],
{4},,,,
{4},,,,
{4},,,,
{4},,,,
{4}6b<3[2:4],,,,
{4},,,,
{4},,,,
{4}3,,6,,
{2}4,,5,,
{2}4,,5,,
{2}3,,6,,
{2}3,,6,,
{4}2,,7,,
{4}2,,7,,
{4}1,,8,,
{4}1,,8,,
{8}2b,,,,
,,,,
{8},,,,
,,,,
{8}8b,,,,
,,,,
{8},,,,
,,,,
{4},,,,{4},,,,
{4},,,,{4},,,,
{4}1,,,,
{4},,,,
{4}3,,,,
{4},,,,
{4}8,,,,
{4},,,,
{8}6,,,,
,,,,
{8}3,,,,
,,,,
{4}1,,2,,
{4}8,,7,,
{4}4,,3,,
{1}5h[2:1],
{4}5,,4,,
{4}45,,45,,
{1}24,57,
{4}8,,,,
{4}6,,,,
{4}6,6,5,,
{1}4,
{8}4,,,,
,,,,
{8}8,,,,
,,,,
{8}3,,,,
,,,,
{4}8,,2,,
{8}5,,,,
,,,,
{8}1,,,,
,,,,
{8}6,,,,
,,,,
{4}1,,7,,
{8}4,,,,
,,,,
{8}8,,,,
,,,,
{8}3,,,,
,,,,
{4}8,,2,,
{8}5,,,,
,,,,
{8}1,,,,
,,,,
{8}6,,,,
,,,,
{4}1,,7,,
{8}4,,,,
,,,,
{8}8,,,,
,,,,
{8}3,,,,
,,,,
{4}7,,2,,
{1},,,,,,,,
&inote_3=(235){1},
{4}3,3,3,3,
{8}3h[2:1],,,,
,,,,
{8}7h[2:1],,,,
,,,,
{8}3h[2:1],,,,
,,,,
{4}7h[4:1],,3h[4:1],,
{8}6h[2:1],,,,
,,,,
{8}2h[2:1],,,,
,,,,
{8}6h[2:1],,,,
,,,,
{4}2h[2:1],,6h[4:1],,
{8}3,,,,
3,,2,,
{8}7,,,,
7,,6,,
{8}3,,,,
3,,2,,
{4}8h[4:1],,2h[4:1],,
{8}6,,,,
6,,7,,
{8}2,,,,
2,,3,,
{8}6,,,,
6,,7,,
{4}1h[4:1],,7h[4:1],,
{2}1,2,
{4}3,3,4,,
{2}5,6,
{4}7,7,8,,
{2}8,7,
{4}6,6,5,,
{2}4,3,
{4}2,2,1,,
{2}1h[4:1],2,
{4}3h[4:1],,4,,
{2}5h[4:1],6,
{4}7h[4:1],,8,,
{2}8h[4:1],7,
{4}6h[4:1],,5,,
{2}4h[4:1],3,
{4}2h[4:1],,1,,
{1}3h[4:3]/4h[4:3],
{2}3,3,
{1}6h[4:3]/5h[4:3],
{2}6,6,
{1}6h[4:3]/3h[4:3],
{2}45,45,
{1}36,36,36,3b/6b,
{4}1,1,2,,
{4}4h[2:1],,,,
{4}5,5,6,,
{4}8h[2:1],,,,
{4}8,8,7,,
{4}5h[2:1],,,,
{1}34,56,
{4}1,1,2,,
{4}8,8,7,,
{1}45,27,
{4}18,,18,,
{4}45,,27,,
{1}56,
{8}34,,,,
,,,3b-6[2:4],
{4},,,,
{4},,,,
{4},,,,
{4},,,,
{4}6b<3[2:4],,,,
{4},,,,
{4},,,,
{4}3,,6,,
{2}4,4,5,5,
{2}4,4,5,5,
{2}3,3,6,6,
{2}3,3,6,6,
{4}2,2,7,7,
{4}2,2,7,7,
{4}1,1,8,8,
{4}1,1,8,8,
{8}2b,,,7b,
,,2b,,
{8},7b,,,
2b,,,,
{8}8b,,,1b,
,,8b,,
{8},1b,,,
8b,,,,
{4},,,,{4},,,,
{4},,,,{4},,,,
{4}1,,,,
{4},,,,
{4}3,,,,
{4},,,,
{4}8,,,,
{4},,,,
{8}6,,,8,
,,4,,
{8}3,,,1,
,,5,,
{4}1,1,2,,
{4}8,8,7,,
{4}4,4,3,,
{1}5h[2:1],
{4}5,,4,,
{4}45,,45,,
{1}24,57,
{4}8,,,,
{4}6,,,,
{4}6,6,5,,
{1}4,
{8}4,,,3,
,,1,,
{8}8,,,7,
,,5,,
{8}3,,,2,
,,1,,
{4}8,6,2,4,
{8}5,,,6,
,,8,,
{8}1,,,2,
,,4,,
{8}6,,,7,
,,8,,
{4}1,,7,,
{8}4,,,,3
,,2,,
{8}8,,,,7
,,6,,
{8}3,,,,2
,,1,,
{4}8h[4:1],,2h[4:1],,
{8}5,,,,6
,,7,,
{8}1,,,,2
,,3,,
{8}6,,,,7
,,8,,
{4}1h[4:1],,7h[4:1],,
{8}4,,,,
,,,,
{8}8,,,,
,,,,
{8}3,,,,
,,,,
{4}7,,2,,
{1},,,,,,,,E
&inote_4=(235){1},
{4}3,3,3,3,
{8}3h[4:1],,,3h[4:1],
,,2,,
{8}7h[4:1],,,7h[4:1],
,,6,,
{8}3h[4:1],,,3h[4:1],
,,2,,
{4}7h[4:1],5,3h[4:1],4,
{8}6h[4:1],,,6h[4:1],
,,7,,
{8}2h[4:1],,,2h[4:1],
,,3,,
{8}6h[4:1],,,6h[4:1],
,,7,,
{4}2h[4:1],4,6h[4:1],5,
{8}3h[4:1],,4,3h[4:1],
,,2,,
{8}7h[4:1],,5,7h[4:1],
,,6,,
{8}3h[4:1],,4,3h[4:1],
,,2,,
{4}8-5[8:1],5,2-4[8:1],4,
{8}6h[4:1],,5,6h[4:1],
,,7,,
{8}2h[4:1],,4,2h[4:1],
,,3,,
{8}6h[4:1],,5,6h[4:1],
,,7,,
{4}1-4[8:1],4,7-5[8:1],5,
{8}1,,2,2,
,,3,,
{8}3,4,3,4,
,,5,,
{8}3,4,,6,
5,,4,,
{8}3,4,3,4,
,,6,,
{8}8,,7,7,
,,6,,
{8}6,5,6,5,
,,4,,
{8}3,,3,,
3,4,3,4,
{8}3,,3,3,
,,,,
{8}1h[4:1],,,2,
,,3,,
{8}3h[4:1],,4,3,
,,5,,
{8}5h[4:1],,,5,
4,,6,,
{8}7,5,7,5,
,,7,,
{8}8h[4:1],,,7,
,,6,,
{8}6h[4:1],,5,6,
,,4,,
{8}4h[4:1],,,4,
,,4,5,
{8}3,4,3,4,
,,,,
{8}3h[4:1]/4h[4:1],,,3h[8:3]/4h[8:3],
,,,,
{6}3,3,3,
3,,,
{8}6h[4:1]/5h[4:1],,,6h[8:3]/5h[8:3],
,,,,
{6}6,6,6,
6,,,
{8}4,5,4,6h[8:3]/3h[8:3],
,,,,
{12}4,,4,,5,,5,,,
45,,,
{4}5,4,3,2,
{4}4,5,6,7,
{4}45,45,36,27,
{4}1b/8b,,,,
{4}1,1,{8}1,,2,2,
{4},3h[4:1],4h[4:1],5,
{4}5,6,{8}7,,8,8,
{4},1,1,,
{4}8,8,{8}8,,7,7,
{4},6h[4:1],5h[4:1],4,
{8}3,,,2,
,,1,,
{8}8,,,7,
,,6,,
{4}1,1,{8}1,,8,8,
{4},27,18,27,
{4}6,5,{8}4,,3,3-7[2:1],
{4},,,,
{4}18,2,18,7,
{4}45,36,27,,
{8}1,,8,,
7,,6,6,
{8},4,5,4,
5,,,3b>6[2:4],
{4},,,,
{4},,5,,
{4}5,,,,
{4},,5,,
{4}6b<3[2:4],,,,
{4},,4,,
{4}4,,4,,
{4}3,3,6,6,
{4}2,2,5,5,
{4}7,7,4,4,
{4}3,3,5,5,
{4}6,6,4,4,
{4}3,1,6,8,
{4}4,2,5,7,
{4}2,4,7,5,
{4}1,3,8,6,
{8}2,7,2,7,
1,8,1,8,
{8}2,7,2,7,
3,6,3,6,
{8}2,7,1,8,
2,7,3,6,
{8}2,7,1,8,
1,8,2,7,
{8}2b,4,3,7b,
5,6,2b,4,
{8}3,7b,5,6,
2b,4,3,3,
{8}8b,6,7,1b,
3,2,8b,6,
{8}7,1b,3,2,
8b,6,7,7,
{4},,,,{4},,,,
{4},,,,{4},,,,
{4}1h[2:3],,,,
{4},,,,
{4}3h[2:3],,,,
{4},,,,
{4}8h[2:3],,,,
{4},,,,
{8}6h[4:1],,,8h[4:1],
,,4,,
{8}3h[4:1],,,1h[4:1],
,,5,,
{4}18,18,{8}18,,2,2,
{4},3h[4:1],4h[4:1],5,
{4}5,6,{8}7,7,,1h[8:5],
{8},,,,
,,,,
{4}5-7[8:1],,4-2[8:1],,
{4}4^1[2:1]/5^8[2:1],,,,
{4}17,26,{8}35,,4,4h[8:5],
{4},,,,
{4}8,,,,
{4}6,,,,
{4}6h[4:1],5h[4:1],{8}4,,3,3,
{8},3,4,3,
4,,,,
{8}4h[8:2],,,3h[8:2],
,,1,,
{8}8h[8:2],,,7h[8:2],
,,5,,
{8}3h[8:2],,,2h[8:2],
,,1,,
{4}8h[4:1],6,2h[4:1],4,
{8}5h[8:2],,,6h[8:2],
,,8,,
{8}1h[8:2],,,2h[8:2],
,,4,,
{8}6h[8:2],,,7h[8:2],
,,8,,
{4}1h[4:1],3,7h[4:1],5,
{8}4h[4:1],,,,3
,,2,,
{8}8h[4:1],,,,7
,,6,,
{8}3h[4:1],,,,2
,,1,,
{4}8-5[8:1],5,2-4[8:1],4,
{8}5h[4:1],,,,6
,,7,,
{8}1h[4:1],,,,2
,,3,,
{8}6h[4:1],,,,7
,,8,,
{4}1-4[8:1],4,7-5[8:1],5,
{8}4,,,3,
,,2,,
{8}8,,,7,
,,6,,
{8}3,,,2,
,,1,,
{4}7,5,2,4,
{1},,,,,,,,
&inote_5=(235){1},
{4}2,2,2,2,
{8}3h[4:1],,,3h[4:1]/4h[4:1],
,,2,,
{8}6h[4:1],,,5h[4:1]/6h[4:1],
,,7,,
{8}2h[4:1],,,3h[4:1]/4h[4:1],
,,1,,
{4}2h[4:1],4h[4:1],5h[4:1],7,
{8}7h[4:1],,,5h[4:1]/6h[4:1],
,,7,,
{8}2h[4:1],,,3/4h[4:1],
,2,4,3,
{8}5h[4:1],,,5h[4:1]/6,
,7,5,6,
{4}5h[4:1],7h[4:1],2h[4:1],4,
{8}3h[4:1]/4,,4,3,
4,2,4,3,
{8}6h[4:1],,5,6,
5,7,5,6,
{8}3h[4:1],,4,2,
4,1,4,3,
{4}6-1[8:1],3,2-5[8:1],7,
{8}6h[4:1],,5,7,
5,8,5,6,
{8}3h[4:1],,4,2,
4,1,4,3,
{8}6h[4:1],,5,6,
5,7,5,6,
{8}3-8[8:1],,5,,
1h[4:1],,7,,
{8}1,,3,4,
,,6,5,
{8}6,7,8,1-5[8:1],
,,7,,
{8}6,6,,5,
5,,4,,
{8}4,5,3,2-5[8:1],
,,6,,
{8}8,,6,5,
,,3,4,
{8}3,2,1,8-4[8:1],
,,2,,
{8}3,,{16}3,2,1,,
{8}7,7,8,6,
{8}3,4,2,1,
,,,,
{8}1/4h[4:1],,2,4,
,,6,5,
{8}6,7,8,1-5[8:1],
,,7,,
{8}6,6,,5,
5,,4,,
{8}4,5,3,2-5[8:1],
,,6,,
{8}8/5h[4:1],,7,5,
,,3,4,
{8}3,2,1,8-4[8:1],
,,2,,
{8}2,,{16}2,3,4,,
{8}6,6,5,6,
{8}2,1,3,4,
,5,5,,
{8}3h[4:1]/4,,4,2h[4:1],
,4,1,,
{6}15,62,53,64,,,
{8}6h[4:1]/5,,5,7h[4:1],
,5,8,,
{6}84,37,46,35,,,
{8}4,5,3,4h[4:1],
,,1,,
{12}25,,47,,35,,46,,,
45,,,
{8}36,4,5,3,
25,4,3,5,
{8}36,5,4,6,
47,5,6,4,
{12}7,6,5,
4,3,2,
1,2,3,4,5,6,
{4}7b,,,,
{4}1^4[8:1]/8,6,{8}1/8,,1^4[8:1],6,
{4},7^4[8:1],2-5[8:1],8,
{4}3/8^5[8:1],1,{8}1/6,,1^4[8:1],8,
{4},7-4[8:1],2,,
{4}1^4[8:1]/5,7,{8}47,,4^1[8:1],7,
{4},7-4[8:1],2^5[8:1],7,
{8}58,,,36,
,,15,,
{8}2V48[2:1]/7V51[2:1],,,,
,,,,
{4}1^4[8:1],8^5[8:1],{8}1^4[8:1],,8,8,
{4},3-7[8:1],6-2[8:1],,
{4}4^1[8:1],7,{8}5,,4,4qq5[8:5],
{4},,,,
{4}4^2[8:1]/5,6,4/5^7[8:1],3,
{4}4^2[8:1],5^7[8:1],{8}4^2[8:1],,,8,
{8}8,,7,,
5,,4,4,
{8},5,4,5,
36,,,3b>6[2:4],
{4},,,,
{4},,5,,
{4}4,,,,
{4},,5,,
{4}3/6b<3[2:4],,,,
{4},,4,,
{4}5,,{16}4,,,,
,,4,3,
{4}2,2,{8}7,7,4,4,
{8}6,5,6,5,
7,7,4,4,
{8}5,2,5,2,
4,4,1,1,
{8}8,2,8,2,
7,7,1,1,
{16}7,6,5,,
{8}2,2,
4,3,4,3,
{8}5,5,4,4,
{16}5,6,7,,
1,,8,,
{8}2,2,8,8,
1,7,1,7,
{8}5,8,5,8,
4,4,7,7,
{8}2,5,2,5,
3,3,4,4,
{8}2,4,2,7,
{16}2,3,4,,
7,,7,,
{16}7,6,5,,
{8}2,2,
5,1,5,3,
{8}7,3,5,3,
{16}3,2,1,,
8,,8,,
{16}8,7,6,,
{8}3,3,
3,4,3,6,
{8}8b,8,5,1b,
1,4,7b,7,
{8}5,2b,2,4,
6b,6,5,5,
{8}4b,4,1,5b,
5,8,3b,3,
{8}1,6b,6,8,
2b,2,1,8,
{4},,,,{4},,,,
{4},,,,{4},,,,
{4}1h[1:1],,,,
{4}3^6[4:4],,,,
{4}2^7[4:4],,,,
{4}3p6[4:4],,,,
{4}8h[1:1],,,,
{4}6^3[4:3],,,,
{8}2h[4:1],,,3h[4:1]/4,
,,45,,
{8}7h[4:1],,,5/6h[4:1],
,,45,,
{4}2^5[8:1]/5,8,{8}85,,5^2[8:1],8,
{4},7-3[8:1],2-6[8:1],8,
{4}7^4[8:1]/4,1,{8}4^7[8:1],1,,3,
{8},3,6,6,
4,4,5,5,
{4}4^2[8:1],5,5^7[8:1],4,
{4}45,36,{8}27,,,1,
{4}1-5[8:1],8-4[8:1],{8}2>8[1:1],,7,7h[4:3],
{4},,,,
{4}1h[4:3],,,,
{4}3h[4:3],,,,
{4}45,36,{8}27,,1,18,
{8},18,18,18,
18,,,,
{8}8h[8:1],1,1,7h[8:1],
3,3,6h[8:1],5,
{8}5h[8:1],6,6,3h[8:1],
7,7,1h[8:1],8,
{8}8h[8:1],1,1,7h[8:1],
3,3,6h[8:1],5,
{4}5h[4:1],7h[4:1],2h[4:1],4,
{8}1h[8:1],8,8,2h[8:1],
6,6,3h[8:1],4,
{8}4h[8:1],3,3,6h[8:1],
1,7,1,7,
{8}1h[8:1],8,8,2h[8:1],
6,6,3,3,
{4}4h[4:1],2h[4:1],7h[4:1],5,
{8}5/7^2[2:1],,,4,4
,,3,,
{8}4/2^7[2:1],,,5,5
,,6,,
{8}5/7^2[2:1],,,4,4
,,3,,
{4}2-5[8:1],7-4[8:1],1-5[8:1],8,
{8}7/5^2[2:1],,,8,8
,,1,,
{8}2/4^7[2:1],,,1,1
,,8,,
{8}7/5^2[2:1],,,8,8
,,1,,
{4}1-5[8:1],8-4[8:1],2^5[8:1],7,
{8}7h[4:3]/5,,,5,
,,5,,
{8}3h[4:3]/4,,,4,
,,4,,
{8}6h[4:3]/5,,,5,
,,5,,
{4}2h[4:1],4h[4:1],5h[4:1],7,
{1},,,,,,,,
