&title=すき家のうた
&artist=Dela
&first=1.3
&wholebpm=122.3-136
&demo_seek=73.2
&demo_len=31
&lv_5=13+
&des_5=Ragna
&inote_5=(122.3){16}4,5,{8}
4h[8:3],5,6,7h[2:1],,5,4,3-6[8:5],
,,,,8h[4:1],,,,
4<3[4:3],,,,,,,,
5>6[4:3],,,,,,,,
3h,4h,5h,6h/3h,,1h[8:3],8h[4:1],,
,,5h[2:1],,,,4<4[16:11]*>5[16:11],,(136){8}
,,,,,,,,
2b/7b,,3-8[8:1],,7-4[8:1],,2-6[8:1],,
5^8[8:1],,1^4[8:1],,7-3[8:1],,3,2,
1V36[32:7],,6,7,8V63[32:7],,3,2,
1h[8:1],{16},2h[8:1]/8h[8:1],{8},3p5[16:3]/7q5[16:3],,3b/7b,,,
4^1[8:1],,8^5[8:1],,3^8[8:1],,7^4[8:1],,
2^7[8:1],,6^3[8:1],,1-5[8:1],,5,6,
7V58[32:7],,4,3,2V41[32:7],,5,6,
7>6[16:7]*<8[16:7],,,,,,,,
15,15,{16},37,,45,{8}4^1[8:1]/5^8[8:1],,,,
2pp8[2:1],,,,8V64[8:3],{16},6V42[8:3],{8},4V28[8:3]*z8[8:3],
,,,,,,,,
6pp4[2:1],,,,4V28[8:3],{16},2V86[8:3],{8},8V64[8:3]*z4[8:3],
,,,,,,,,
3pp8[2:1],,,,8<8[4:3],{16},6>8[16:9],{8},4>8[8:3]*z8[8:3],
,,,,,,,,
7pp4[2:1],,,,4>4[4:3],{16},2<4[16:9],{8},8<4[8:3]*z4[8:3],
,,,,,,,,
4V26[4:1],,6-4[8:1],,5V73[4:1],,3-5[8:1],,
4V27[4:1],,7-4[8:1],,5V72[4:1],,2-5[8:1],,
4p6[4:1],,6^4[8:1],,5q3[4:1],,3^5[8:1],,
4p7[4:1],,7^4[8:1],,5q2[4:1],,2^5[8:1],,
4>7[4:1],,7<2[32:9]/4<1[32:9],,,,,,
8<3[4:1],,8>5[32:9]/3>6[32:9],,,,,,
7-4[8:1]/4-8[8:1],,74,,15,1^4[8:1]/5^8[8:1],,1bz5[4:1]/5,
,4,3,2,1,8,27,,
3-5[8:1]/5-7[8:1],,5-1[8:1],,1-3[8:1]*-7[8:1],,1,,
6-4[8:1]/4-2[8:1],,4V68[16:3],,1,1h[4:1],,8b,
2z6[4:1],,6qq8[8:3],,5-8[8:1],,,,
7s3[4:1],,3pp1[8:3],,4-1[8:1],,,,
8^6[8:1]/2^8[8:1],,8-4[8:1],,4^2[8:1]*^6[8:1],,4,,
1^3[8:1]/7^1[8:1],,1<5[16:3],,4,4h[4:1],,5b>5[16:9]*<4[16:9],
,,,,,,,,
2b/7b,,,,,,,,
2qq2[4:1],,2-4[8:1]/5,,7pp7[4:1],,7-5[8:1]/4,,
3qq3[4:1],,3-5[8:1]/4,,6pp6[4:1],,6-4[8:1]/5,,
1pp1[4:1],,1-7[8:1]/6,,8qq8[4:1],,8-2[8:1]/3,,
1bpp4[16:7]*qq6[16:7],,,,,,,,
6qq6[4:1],,6^8[8:1]/1,,3pp3[4:1],,3^1[8:1]/8,,
7qq7[4:1],,7^1[8:1]/8,,2pp2[4:1],,2^8[8:1]/1,,
5pp5[4:1],,5^3[8:1]/2,,4qq4[4:1],,4^6[8:1]/7,,
5h[8:3],,,4bpp4[32:7]*qq4[32:7],,,,,
1pp1[4:1],,1qq1[4:1],,5qq5[4:1],,5pp5[4:1],,
2pp2[4:1],,2qq2[4:1],,6qq6[4:1],,6pp6[4:1],,
3pp3[4:1],,3qq3[4:1],,7qq7[4:1],,7pp7[4:1],,
4h[8:3],,,5bpp5[32:7]*qq5[32:7],,,,,
2pp2[4:1]*v4[8:1],,2-8[8:1],,7qq7[4:1]*v5[8:1],,7-1[8:1],,
2pp2[4:1]*v5[8:1],,2-8[8:1],,7qq7[4:1]*v4[8:1],,7-1[8:1],,
2pp2[4:1]*-6[8:1],,2-8[8:1],,7qq7[4:1]*-3[8:1],,7-1[8:1],,
2h[8:3],,,4bpp4[32:7]*qq4[32:7],,,,,
3qq5[2:1],,,,5p7[4:1],,,,6pp4[2:1],,,,4w8[8:1],,,,{16}
2b,5,3,4h[16:3],,,1b,6,8,7h[16:3],,,5b,6,4,5,
2b,7,1,8h[16:3],,,3b,6,4,5h[16:3],,,1b,7,2,8,
4b,7,5,6h[16:3],,,3b,8,2,1h[16:3],,,4b-8[8:1],8,2,6,{8}
4b,,36,45,36,27,{32}18,2,3,4,5,6,7,8,
17,2,3,4,5,6,7,8,16,2,3,4,5,6,7,8,15,2,3,4,5,6,7,8,14,2,3,4,5,6,7,8,
{1}1b/3b,E
