&title=Live Fast Die Young
&artist=anubasu-anubasu
&first=0.18
&des=ホシノちゃん
&des_5=ホシノちゃん
&lv_5=14
&inote_5=(153)
{1},
{8},,,,6,5,4,3q5[8:7],C,,,,,,A6,A7,,,D7,D8,5,4,3<6[4:1],2q4[8:7],,,,,,,E7,E8,,,A7,A8,4,3,2>5[4:1],1p7[8:7],
{8},,,,,,E5,E4,,,A4,A3,7,6,5<8[4:1],4q6[8:7],,,,,,6,7,8h[8:5],,,5,5h[8:3],,,7-3b[8:1],4,
{8}7b/5p2[8:3]*q8[8:3]/Cf,,,,,,3-7b[8:1],8,3b/1p6[8:3]*q4[8:3]/Cf,,,,,,3x/7x,,
{16}1b,1,3,3,2,2,4,4,3b,3,6,6,
{32}4,3,2,1,8,7,6,5,
{16}4,B7,B3,,8h[8:1],,5,D7/E7,,E3/D3,4h[8:1],,Ch[8:1],,,,
{16}7h[8:1],,2,7,1,7,3,7,1-5[8:1],7,8s4[8:1],7,1,,,,
{16}2h[8:1],,5,3,5,2,5,3,5v7[8:1],1,5,2,5V31[8:1],,3,,
{16}8xh[8:1],,,,6,4,6,5,7-3[8:1],3,6z2[8:1],4,,,,,
{16}8h[8:1],,,,3,4,2,5,1,1/5s1[8:1]*s1[8:1],,2/6,2/6,,,,
{16}2h[8:1],,7,2,8,2,6,2,8-4[8:1],2,1z5[8:1],2,8,,,,
{16}7h[8:1],,4,6,4,7,4,6,4,8,4,7,3x,3x,3x/7,,
{32}7x/2b,6,5h[8:1],,,,8x,7,6h[8:1],,,,2x,3,4h[8:1],,,,1x,2z6[8:1],3h[8:1],,,,,,,,,,,,
{16}B1,E8,2h[8:1],,D6,D4,D5/E5,,1w5b[8:1],8,2,7,,,,,
{16}1bx-5[8:1]/8bx,1bx/8bx,1bx/8bx,,1bx>4[8:1]/7x,,,,1bx<7[8:1]/6,,,,1bx/5,,6x,6x,
{32}2bxV86[8:1],3,4,,8x,,8x,,2bx,,,,5x,,,,2bx-6[8:1],3,4,,,,8x,,2bx,,,,,,,,
{32}8bx<6[8:1]/5,E1,B1,B2,,,,,8bx-4[8:1]/3,,,,,,,,8bx-2[8:1]/4,,,,,,,,8bx/3,,,,3x,,3x,,
{32}7bx-3[8:1],6,5,,1x,,1x,,7bx,,2xh[16:1],,,,2bx,,1bxs5[8:1]/5bxs1[8:1],,,,3bx/7bx,,,,,,,,,,,,
{16}8bx-4[8:1]/1x,,,,8bx<5[8:1]/2x,,,,8bx>2[8:1]/3,,,,8bx/4,,3x,3x,
{32}7bxV13[8:1],6,5,,1x,,1x,,7bx,,,,4x,,4x,,7bx-3[8:1],6,5,,1x,,,,2bx,,2bx,,2bx,,,,
{32}3bx,4,5h[8:1],,,,1bx,2,3h[8:1],,,,7bx,6,5h[8:1],,,,1bx,8,7h[8:1],,,,2bx-6b[8:1],3,4,,8h[8:7],,,,2bxz6-8-5-1-4-2[4:3],,,,,,,,,,,,,,,,,,,,,,,,,,,,,,,,
{32}8bq1V35V71>1[2:7],B8,Cf,B4,,,,,
{4},,,,,,,,,,,,,,,
{8}3h[4:1],,7h[2:1],,E1,,2,2,5,5,3,3h[8:1],E8,,4h[4:1],,
{8},,6,,7h[4:1]/B4,,5,5,6,6,4,5,3h[4:1],,,,
{8}C,,1,8,2,2,4,4,3,5,4,6,2h[4:1],,7,,
{8}A8/B8,,3,5,4,6,5,7,4,4,5,5,3h[4:1],
{24}D7,A6,D6,A5,,,,,,
{16}2-8[8:1],,2,,2/4,,5,5,4,6,5h[8:1],,8,,4,,
{16}7-1[8:1],,7,,7/5,,4,4,5,3,4h[8:1],,1,,5,2,
{16}6-8[8:1],,6,,4/6,,5,5,6,4,5h[8:1],,2,,
{24}3,4,3,
{16}5-8[16:1],,,5,,2,2,4,3h[8:1],,7h[8:1],,5,5h[8:1],,8,
{16}3-1[8:1],,3,,5/3,,4,4,3,5,4h[8:1],,7,,5,5,
{16}6-8[8:1],,6,,4/6,,5,5,6,4,5h[8:1],,2,,4,4,
{16}3-1[8:1],,3,,5/3,,4,4,3,5,4h[8:1],,8<1[4:3],,8,,5s1b[2:1],,,,,,,,,,,,,,,,
{16}5/6pp1[2:1],,7,,5/6,,4,4h[16:1],,,3,,2,,3,3h[16:1],8V64[8:1],,2,,1-5[8:1]/8,,2,2,1-3[8:1],,7h[8:1],,1,,8h[8:1],,
{16}1-5-3[8:1],,6,,1,,7,7,2,,8,,2-4[8:1],,7,7,2-6[8:1],,8,,2,,1,1,4-7[8:1],,3,,2/4,,1h[8:1],,
{8}Ch[4:7],2,2,2,3,3,4,4h[16:1],5,5,4,4,3,3,2,2h[16:1],
{16}1,8,3,6,2,7,4,5,2,7,2,7,
{32}3,4,5,6,7,8,1,2,3pp5v8[8:3]/7qq5v2[8:3],,,,,,,,,,,,,,,,,,,,,,,,
{4}1b-5[8:1],
{16}1x/7<4[8:1],,8,,2-6[8:1]/7x,,1,1,2x/8p4[8:1],,7,,8x/3p7[8:1],,2,2,3x/6-1[8:1],,5,,2<7[8:1]/6x>3[8:1],,3,3,2x-6[8:1]/6,,,,2/7x-4[8:1],,8,,
{16}7x/1-5[8:1],,2,,1x/6q2[8:1],,7,7,6x/3>8[8:1],,4,,3x/5-1[8:1],,6,6,5x/2q6[8:1],,3,,2x/8-4[8:1],,7,7,8x/1,,,1x,2x/6-3[8:1],,2/6x,,
{16}6x/2>5[8:1],,1,,7-3[8:1]/2x,,8,8,7x/1q5[8:1],,2,,1x/6q2[8:1],,7,7,6x/3-8[8:1],,4,,7>2[8:1]/3x<6[8:1],,6,6,7x-3[8:1]/3,,,,7/2x-5[8:1],,1,,
{16}2x/8-4[8:1],,7,,8x/3p7[8:1],,2,2,3x/6<1[8:1],,5,,6x/4,,3,2bx/4bx,,,5b/6bx,,4bx/7b,,8xz4[4:1],1bxs5b[16:3]/8bx,,,,,,,,,
{16}1>4[8:1]/7x,,8,,1x/6,,7,7,5xV31[8:1],,1,,5x/8,,7,7,6x-1[8:1],,5,,4v7[8:1]/6x,,2,2,4x>1[8:1],,3,,4x/8,,6,,
{16}5xv2[8:1],,4,,5x/7p3[8:1],,8,8,7x/1-5[8:1],,2,,1x/6V82[8:1],,7,7,6x/4-8[8:1],,3,,1/4x>1[8:1],,3,6,4x,,7,,1x/8x,1x/8x,1x/8x,,
{16}8<5[8:1]/2x,,1,,8x/3,,2,2,4xV68[8:1],,8,,4x/1,,2,2,3x-8[8:1],,4,,5v2[8:1]/3x,,7,7,5x<8[8:1],,6,,5x/1,,3x,,
{16}4xv7[8:1],,5,,4x/2,,1,1bx/8bx,,,4bx/5b,,2b/7bx,,3bx/6b,,4bqq1[2:1]/5bxpp8b[2:1],,,,,,,,,,,,,,,,
{16}2bV46[4:1],,,,6x-3-1[4:1],,,,1xV35V38[2:1],,7,7,7x,,6,,8xV24[4:1],,,,4xV25[4:1],,,,5xV38[4:1],,8,8,8x>5[4:1],,6,,5xV31[4:1],,,,1xq6[4:1],,,,6x>2[4:1],,7,7,7x,,8,,
{16}1bx,,,,5b/7b,,,2b/4b,,,3b/6b,,B3,B6,Ch[16:1],,
{16}7bV53[4:1],,,,3x-6-8[4:1],,,,8xV64V61[2:1],,2,2,2x,,3,,1xV75[4:1],,,,5xV74[4:1],,,,4xV61[4:1],,1,1,1x<4[4:1],,3,,2b,,,,2b,,,3b/4b,,,4b/5b,,8b-4[8:1],2b,6b,4b,8b-5[8:1]*-3[8:1],,,,,,,,1-4b[8:1]/5xq7[4:13],,,,1q3[1:3]/5b,
