&title=On and On!!!
&artist=ETIA.
&first=0
&des=NaOH
&clock_count=4
&lv_5=14
&inote_5=(170)
{4},,,,
4,4,35,35,46,46,57,57,28,28,46,46,37,37,28,28,
{8}
35,4,46,5,35,2,46,8,37,5,26,4,37,5,26,4,
{16}3,4,3,4,2,5,2,5,1,6,1,6,8,7,8,7,
1-5[8:1],,8-4b[12:1],,1>3[12:1],,8,,1b,,,,
8-4[8:1],1,7,2,8b/Cf,,,,
1xh[16:1]/7xh[16:1],,3h[16:1]/5h[16:1],,1v4[8:1]/7v4[8:1],,26,,17,,,,
6,,3,4,1-7^6[8:1],,5,,1-3^4[8:1],,5,,1-5[8:1],,5,,1b,,,,
4h[16:1]/6h[16:1],,2h[16:1]/8h[16:1],,1,,28,,37,,46,,
5,,3,4,2,,18,,7,5,6,,2-6[8:1],4,3,,2b/5b,,,,
1xh[16:1]/7xh[16:1],,3h[16:1]/5h[16:1],,8>4[8:1]*<4[8:1],,26,,8,,,,
26,,3,5,4,,6,,3,4,2,,6,5,8bV64[8:1],,,,28,,3b-8[8:1],,,,37,,6bV48[6:1],,,,
3,,2,,1,,{24}E2,B2,B3,E4/8xz4[8:1],,,,,,1b/8b,,,,,,,,,
{16}B2/Cf/B3/B7/B6,,,,
1xh[16:1]/7xh[16:1],,3h[16:1]/5h[16:1],,1v4[8:1]/7v4[8:1],,26,,17,,,,
3,,6,5,8-2^3[8:1],,4,,8-6^5[8:1],,4,,8-4[8:1],,4,,8b,,,,
3h[16:1]/5h[16:1],,4h[16:1]/6h[16:1],,7,,18,,27,,36,,
45,,3,4,2,,18,,2,4,3,,7-3[8:1],5,6,,7b,,,,
2h[16:1]/6h[16:1],,8h[16:1]/4h[16:1],,6-1[8:1]/2-5[8:1],,48,,26,,,,
3,,6,4,5,,37,,6,5,6,,3,4,1bq5[8:1],,,,16,,7bq3[8:1],,,,47,,5bp1[8:1],,,,
57,,8bV62[4:1],,,,28,,1b>8b[4:1],,,,1x/8x,,,,,,
{4}Cf,,,,,,
{8},,,4h[4:1],,6,6,5h[4:1],,7,7,3h[4:1],,6,7,8<5[4:1],,B6/B7,,,
2,4,3,5,4h[4:1],,6,6,5,5,7,5,7h[4:1],,2,1>4[4:1],,6,7,8<5[4:1],,
3,2,1>4[4:1],,8,7,6-2b[8:1],,E5,,,
3xh[4:7],E1,,E7,,E5,,E2,,C,,E6,,E8,,B6,
5xh[4:7],E1,,E3,,E5,,E8,,C,,E4,,E2,,B3,
4xh[4:7],5h[8:1],,6h[8:1],,7h[8:1],,8h[8:1],,1h[8:1],,8h[8:1],,7h[8:1],,6h[8:1],
4-1[8:1],5x,,5,6-1[8:1],5,,5,Cf,,,,,,,,
{4}
1h[8:1]/2h[8:1],2h[8:1]/3h[8:1],3h[8:1]/4h[8:1],4h[8:1]/5h[8:1],
5h[8:1]/6h[8:1],6h[8:1]/7h[8:1],7h[8:1]/8-4[8:1],1h[8:1]/8,
8h[8:1]/7h[8:1],7h[8:1]/6h[8:1],6h[8:1]/5h[8:1],5h[8:1]/4h[8:1],
4h[8:1]/3h[8:1],3h[8:1]/2h[8:1],2h[8:1]/1-5[8:1],8h[8:1]/1,
{8}3,3,6,6,2,2,7,7,{16}1,,7,8,7,,16,,2,,3,4,3,,45,,
3,4,3,4,2,5,2,5,1,6,1,6,
1-5[8:1],,8-6b[12:1],,1>3[12:1],,8-4b[8:1],,1-5[8:1],,8,,1bw5b[8:1],,,,1b,,,,
{48}1bx/8bx,27,36,45,,,,,,,,,
{16}3,,3,4,2>5[8:1],,5p1[8:1],,2,,6,,
7-1[12:1],,2,2,7-4[8:1],,3-8[8:1],,27,,3,,7^2[8:1]*<4[8:1],,6,,7b,,,,
6,,6,5,7<4[8:1],,4q8[8:1],,7,,3,,
2-8[12:1],,7,7,2-5[8:1],,6-1[8:1],,72,,6,,3,,2,,
{48}1b/8b,2b/7b,3b/6b,4b/5b,,,,,,,,,
{16}3,4,2,5,1,8,2,7,3,4,2,,1>4[8:1],,5,5,1,,6,,
7-5[12:1],,8-4[8:1],,7>5[4:1],,8,,7b,,,,
2,,2,4,3-1[12:1],,1-5[8:1],,3,,7,,6^4v7[6:1],,4,4,6,,3,,2v5[8:1]*v7[8:1],,,,2b,,,,
4x>7[4:1],,,,5,,,,6-3[8:1],,,,2,,,,4x>7[4:1],,,,5,,,,6-1[8:1],,,,2,,,,
2-4[8:1],,,,1-5[8:1],,,,8-6[8:1],,,,4,,5,,
7h[16:1],,8h[16:1],,1h[16:1],,2h[16:1],,1h[16:1]/8h[16:1],,8h[16:1]/7h[16:1],,1b/8bh[4:1],,,,
1,2,3,4,1,8,7,6,3,4,2,5,1,6,1h[4:1],,,,8,1,27,,6,,5-1[8:1],,4,,35,,2,,
3^6[8:1],,,,3^8[8:1],,,,3-7[8:1],,,,3,,,,
8x-5[8:1],,5-2[8:1],,2>8b[4:1],,1,,1h[16:3],,,,
{16}
1-5[8:1],2,3,4,1bx/5bx,,,,
3xh[16:1]/8xh[16:1],,1h[16:1]/6h[16:1],,3-5[8:1]/8-5[8:1],,16,,38,,,,
26,,3,4,3-8[8:1],,25,,7-4[8:1],,6,,1q5[8:1],,2,,1b/8b,,,,
8p4[8:1]/1h[16:1],,2h[16:1]/7h[16:1],,18,,2,,3,,4,,
45,,6,5,7,5,8,,3,4,2,6,1-5[8:1],7,2,8,1b,,,,
6xh[16:1]/1xh[16:1],,8h[16:1]/3h[16:1],,6-4[8:1]/1-4[8:1],,83,,61,,,,
37,,5,4,6,,37,,2,1,2,1,2,,
8b<5[8:1],,1,,2,,3b>8[8:1],,4,,5,,6b^3[8:1],,7,,8,,1,,{24}8,7,6,2,3,4,
{16}1b<6[8:1]/5b>2[8:1],,,,1b/5b,,,,,,B2/B3/E3/Cf/B7/B6/E7,,,,
3xh[16:1]/8xh[16:1],,1h[16:1]/6h[16:1],,3-8[8:1]/8-5[8:1],,16,,38,,,,
26,,1,8,1-4[8:1],,27,,6-1[8:1],,7,,5-2[8:1],,4,,6b/5b,,,,
4>1[8:1]/5h[16:1],,2/7h[16:1],,45,,6,,7,,8,,
18,,7,1,6,2,5,,2,1,3,8,2-6[8:1],6,3,5,2b,,,,
7xh[16:1]/1xh[16:1],,8h[16:1]/3h[16:1],,6-1[8:1]/1-4[8:1],,83,,61,,,,
37,,5,4,6,,37,,2,1,2,1,2,,38,,4,5,4,5,3,6,3,6,2,7,2,7,1,8,1,8,
{24}2h[8:1],,,8,7,6,15,,,1b-5b[8:1]/5b-1b[8:1],,,,,,1b/5b/Cf,,,,,,,,,
{16}
2x-4[12:1],,1,,2,,8,,1-4[8:1],,8,,1,,7,,8-4[8:1],,7,,8,,6,,5,,36,,27,,18,,
2,7,3,6,4,5,3,6,1,8,2,7,4,5,3,6,2-6-2[4:1],,37,,2>6b[8:1]/6<2b[8:1],,,,,,,,C,,
