&title=Chronomia
&artist=Lime
&first=0.02
&des=
&des_6=冰蓝镜
&des_7=
&lv_6=14+
&lv_7=1
&inote_1=(227){4},{1},,{4},,,{8}1/E6,
B6,B7,E8,,,,,2/E6,
B6,B7,8/E8,,,3,2,
E6,3/B6,4/B7,E8,,,,,4/E6,
B6,3/B7,E8,{4}2,1,
{8}8/E4,B3,B2,E2,,,,,7/E4,
B3,B2,{16}8/E2,1,,,,,{8}8,7,
E4,B3,B2,E2,,,,,5/E4,
B3,6/B2,E2,{4}7,8,
{1}1/Cf,
{8}5/4,,,6/3,,,{4}7/2,
{32}1/8/B8f,C,{16}B4,{32},,,,,,,,8/1/B1f,C,{16}B5,{32},,,,,,,,B8f/B1f/1<5[2:1]/8>4[2:1],C,{16}B5/B4,,,,,,,,,,,,,,,{8}6,
3,
3h[8:3],,,5h[8:3],,,{4}3h[4:1],
{8}6h[8:3],,,4h[8:3],,,{4}6h[4:1],
3h[2:1],{8},,,,4<8[2:1]/5>1[2:1],4/5,
{1},{32}4b/6b/B6,
C,{16}B2,{32},,,,,,,,6b/4b/B6,C,{16}B2,{32},,,,,,,,3b/5b/B3,C,{16}B7,{32},,,,,,,,3b/B3/5b>6[8:3],
C,{16}B7,,,,,,,,,,,,,{4}7/4h[4:5],
7,7,7,
7,7,7/3h[4:1],7,
2/5h[4:1],{8}2,6h[8:1],{4}2,2/6h[4:1],
2,2/5,2/6,2/8h[8:1],
7/1h[4:1],{8}7,2h[8:1],{4}7,7/4h[2:1],
7,7,{8}7/4,3,{4}7/2,
2/6h[4:1],{8}2,5h[8:1],{4}2,2/5h[8:5],
2,2,{16},,,,5,4,5,4,
{8}5,6,5,3,6,5,4,5,
6,3,4,5,5/3,6,5,4,
6/4,5,3,5/4,6,3,4/6,5,
3,4,6/3,5,6/4,3,5/4,6/A3,
5,4,5,6/3,4,5,6/4,5,
3,4,5,3,6/4,4/5,5/3,6,
5/3,4,5,6/3,5,4,6/3,4,
{4}3/A6,{16}7,6,5,4,2,3,4,5,8,7,6,5,
{8}4,2,{16}8,1,{8}8,7,{16}1,8,{8}1,2,
{16}6,3,{8}6,5,4,3,2,1-4b[8:1],6,
7/1,8-5b[8:1],,8/2-5b[8:1],,2/7-4b[8:1],,7/1,
,3,2,1,4,5,6,7,
{16}8,1,8,1,{8}7,7,2,2,6,6/3h[8:1],
,5h[8:1],{16},,3,4,2,5,4,5,3,6,5,6,
{8}4bh[8:1],8v2[8:1],,8/4bh[8:1]/C,,,2/4bh[8:1],1v7[8:1],
,4bh[8:1]/C,{16},,6,5,7,4,5,4,6,3,4,3,
{8}5bh[8:1],1v7[8:1],,1/5bh[8:1]/C,,,7/5bh[8:1],8v2[8:1],
,5bh[4:1]/C,{16},,3,4,5,6,7,8,5-2[8:1]/1-6[8:1],2/6,3/7,4/8,
{4}5b/1b,{8}5h[4:1],1,2h[4:1],6,7h[4:1],3,
4h[4:1],8,7h[4:1],3,2h[4:1],6,5h[4:1],1,
8h[2:1],4,3,2,1h[4:1],2,4h[4:1],8,
1h[2:1],5,6,7,8h[4:1],7,5h[4:1],1,
2h[8:3],1,8,7,7h[4:5],8,1,2,
3,4,5,6,8,1,2,3,
4,B6,{4}4/B5,{8}5/B3,B4,5,B4,
{4}4/B5,{8}4/B5,B4,,6b/3b,{16},,,,7,
3,6,3,{32}5bh[8:1]/A3f,B3,C,B7,{8}A7,{32},,,,5bh[8:1]/A7f,B7,C,B3,{4}A3,
{32}3bh[8:1]/A5f,B5,C,B1,{8}A1,{32},,,,3bh[8:1]/A1f,B1,C,B5,{2}A5,
{16}2,6,3,6,{32}4bh[8:1]/A6f,B6,C,B2,{8}A2,{32},,,,4bh[8:1]/A2f,B2,C,B6,{4}A6,
{32}6bh[8:1]/A4f,B4,C,B8,{8}A8,{32},,,,6bh[8:1]/A8f,B8,C,B4,{2}A4,
{1}Cfh[1:6]/8-2>3-5<6-8>1-3<4-6<7-1>2-4<5-7[2:7],
,,,B3/E8,
B8/B3,
{2}E1/B3,5/4,
6/3,7/2,
{16}1b/8h[16:5],2,3,4,5,6,7,8,1,2,3,4,5,6,7,8,
1/5,2,3,4,5,6,7/3,8,1,2,3,4,5/2,6,7/2,8,
1,2,3/C,4,5/C,6,7,8,1,2,3,4,5,6,7,8,
4/1,5,6,7,8/1,7,6,5,1/4,2,3,4,5/6,4,3,2,
8/1h[16:5],7,6,5,4,3,2,1,8,7,6,5,4,3,2,1,
8/4,7,6,5,4,3,2/6,1,8,7,6,5,4/7,3,2/7,1,
8,7,6,5,4,3,2,1,8,7,6,5,4,3,2,1,
5/8,4,3,2,1/8,2,3,4,8/5,7,6,5,4/3,5,6,7,
8/1b,2,3,4,1,2,3,4,2,1,8,7,6,5,4,3,
8b/2,7,6,5,8,7,6b,5,7,8,1,2,3bv8[8:1],4,5,6,
{8}7/3b/Cf,6v1[8:1],,2/6b/Cf,{4}3>3[4:3],3b/6b,
{8},,,,,,7/2,1/8,
{4}8/1,{8}6v7[4:1],6/2h[8:3],{2}6,
{4}8/1,{8}3v2[4:1],3/7h[8:3],{2}3,
{4}8h[2:1]/1h[2:1],{8},,,,3V58[2:1]/6V41[2:1],6/3,
,,,,,,7/2-4[8:1],8/1,
2/7,7-1[8:1],7,7/5,5-3[8:1],5,5/2-6[8:1],1,
8/2,8-4[8:1],8,8/5,5-1[8:1],5,5/6,7,
8h[8:3],3,2,1h[8:3],6,7,8h[4:1],3,
4h[8:3],7,6,5h[4:1],4,3,2/7-5[8:1],1/8,
7/2,2-8[8:1],2,2/4,4-6[8:1],4,4/7-3[8:1],8,
1/7,1-5[8:1],1,1/4,4-8[8:1],4,4/3,2,
1/7/B1f,7,7,8/2/B8f,2,2,1/6/B1f,5,
6,7,8/3/B8f,4,3,2/7/B7f,6,5bq2[1.1894##0.5286]/4bp7[1.1894##0.5286],
{1}5bh[1:1]/4bh[1:1],
{4}E5,{8},,,,1,8,
1h[2:1],,,,,7,1,8,
{4}1h[2:1],{8},,,,8,1,
{1}8h[1:1],
{8},,,,,2,8,1,
8h[2:1],,,,,1,2,8,
{2}7h[2:1],2h[2:1],
{8}7h[8:3],,,1h[8:9],,,{4}8h[4:3],
,,,,3/6h[2:1],
3,E5,{8}3/6,5,
{4}3/6h[2:1],3,E5,{8}3/6,4,
{4}6/3h[2:3],6,6,E5,
6,6,{8}E5,2,3,4,
3/6,7,4,{16}8,5,8,5,{8}8,7/4,7,
6/3,2,5,{16}1,4,1,4,{8}1,2/5,2,
6/3h[8:3],,,5h[8:3],,,{4}4h[4:3],
E5h[2:1],{8},,,,3/6,7/2,
{16}3/6h[8:1],2,1,8,5,6,7,8,3,4,5,6,7/4,8,1/5,2,
3/6h[8:1],2,1,8,5,6,7,8,3,4,5,6,7/4,8,1/5,2,
3/6,4,5,6,7/4,8/5,1/6,2/7,3/8,1,2,3,4,5,6,7,
8,1,2,3,4/1,5/2,6/3,7/4,8/5,6,7,8,1,2,3,4,
5/8,7,6,5,8,7,6,5,7,6,5,4,7,6,5,4,
3/6h[16:3],2,1,8,7,6,5,4,6/3h[16:3],7,8,1,2,3,4,5,
6/3,4,5,6,7,8,1/6,5,4,3,2,1,8/5,6,7,8,
1,2,3,4,1,2,3,4,2,3,4,5,2,3,4,5,
6/3h[8:1],7,8,1,4,3,2,1,6,5,4,3,2/5,1,8/4,7,
6/3h[8:1],7,8,1,4,3,2,1,6,5,4,3,2/5,1,8/4,7,
6/3,5,4,3,2/5,1/4,8/3,7/2,6/1,8,7,6,5,4,3,2,
1,8,7,6,5/8,4/7,3/6,2/5,1/4,3,2,1,8v3[8:1],7,6,5,
{32}4/8b/B8f,C,{16}B3,{8}4v7[8:1],4,{32}2/4b/B4f,C,{16}B7,{8}2v5[8:1],2,{32}1/2b/B2f,C,{16}B5,{8}1,
1v6[8:1],1,{32}3/1b/B1f,C,{16}B6,{8}4,5,{32}3b/6b/B6f/B3f,C,,,{8}7,2,
8h[4:1]/1h[4:1],,,7h[4:1]/2h[4:1],,,{4}5h[4:3]/4h[4:3],
{8},,,,,3/6,,,7/5b,
5b-2[8:1],,5/7b,{4}7b-2[8:1],{8}7/5b,5b-2[8:1],
,5/7b,{4}7b-2[8:1],{8}7/5b,5b-2[8:1],,5/6b,
{4}6b-1[8:1],{8}6/4b,4b-1[8:1],,6b/4,{4}6b-1[8:1],
{8}6/4b,4b,,4/6bx,4/6bx,4/6bx,4/6bx,4/6bx,
,3b/5,{4}3b-8[8:1],{8}3/5b,5b-8[8:1],,3b/5,
{4}3b-8[8:1],{8}3/5b,5b-8[8:1],,3b/5,{4}3b-8[8:1],
{8}4b/3,4b-7[8:1],,4/2b,{4}2b-7[8:1],{8}2/4b,4b,
,4/2bx,2bx/4x,2bx/4x,2bx/4x,2bx/4x,2bx/4x,2bx/4x,
{1},{32}B1f/B8f/1pp4[8:15]/8qq5[8:15],
C,{16}B5/B4,,,,,,,,,,,,,,,A6/A3,
{4},,,{16},,{32}B5/B4,E5,
{1}A5/A4,
E
&lv_7=1
&des_7=
&inote_7=
(227){4},
E
&inote_6=(227){4},{1},,{4},,,{8}1/E6,
B6,B7,E8,,,,,2/E6,
B6,B7,8/E8,,,3,2,
E6,3/B6,4/B7,E8,,,,,4/E6,
B6,3/B7,E8,{4}2,1,
{8}8/E4,B3,B2,E2,,,,,7/E4,
B3,B2,{16}8/E2,1,,,,,{8}8,7,
E4,B3,B2,E2,,,,,5/E4,
B3,6/B2,E2,{4}7,8,
{1}1/Cf,
{8}5/4,,,6/3,,,{4}7/2,
{32}1/8/B8f,C,{16}B4,{32},,,,,,,,8/1/B1f,C,{16}B5,{32},,,,,,,,B8f/B1f/1<5[2:1]/8>4[2:1],C,{16}B5/B4,,,,,,,,,,,,,,,{8}6,
3,
3h[8:3],,,5h[8:3],,,{4}3h[4:1],
{8}6h[8:3],,,4h[8:3],,,{4}6h[4:1],
3h[2:1],{8},,,,4<8[2:1]/5>1[2:1],4/5,
{1},{32}4b/6b/B6,
C,{16}B2,{32},,,,,,,,6b/4b/B6,C,{16}B2,{32},,,,,,,,3b/5b/B3,C,{16}B7,{32},,,,,,,,3b/B3/5b>6[8:3],
C,{16}B7,,,,,,,,,,,,,{4}7/4h[4:5],
7,7,7,
7,7,7/3h[4:1],7,
2/5h[4:1],{8}2,6h[8:1],{4}2,2/6h[4:1],
2,2/5,2/6,2/8h[8:1],
7/1h[4:1],{8}7,2h[8:1],{4}7,7/4h[2:1],
7,7,{8}7/4,3,{4}7/2,
2/6h[4:1],{8}2,5h[8:1],{4}2,2/5h[8:5],
2,2,{16},,,,5,4,5,4,
{8}5,6,5,3,6,5,4,5,
6,3,4,5,5/3,6,5,4,
6/4,5,3,5/4,6,3,4/6,5,
3,4,6/3,5,6/4,3,5/4,6/A3,
5,4,5,6/3,4,5,6/4,5,
3,4,5,3,6/4,4/5,5/3,6,
5/3,4,5,6/3,5,4,6/3,4,
{4}3/A6,{16}7,6,5,4,2,3,4,5,8,7,6,5,
{8}4,2,{16}8,1,{8}8,7,{16}1,8,{8}1,2,
{16}6,3,{8}6,5,4,3,2,1-4b[8:1],6,
7/1,8-5b[8:1],,8/2-5b[8:1],,2/7-4b[8:1],,7/1,
,3,2,1,4,5,6,7,
{16}8,1,8,1,{8}7,7,2,2,6,6/3h[8:1],
,5h[8:1],{16},,3,4,2,5,4,5,3,6,5,6,
{8}4bh[8:1],8v2[8:1],,8/4bh[8:1]/C,,,2/4bh[8:1],1v7[8:1],
,4bh[8:1]/C,{16},,6,5,7,4,5,4,6,3,4,3,
{8}5bh[8:1],1v7[8:1],,1/5bh[8:1]/C,,,7/5bh[8:1],8v2[8:1],
,5bh[4:1]/C,{16},,3,4,5,6,7,8,5-2[8:1]/1-6[8:1],2/6,3/7,4/8,
{4}5b/1b,{8}5h[4:1],1,2h[4:1],6,7h[4:1],3,
4h[4:1],8,7h[4:1],3,2h[4:1],6,5h[4:1],1,
8h[2:1],4,3,2,1h[4:1],2,4h[4:1],8,
1h[2:1],5,6,7,8h[4:1],7,5h[4:1],1,
2h[8:3],1,8,7,7h[4:5],8,1,2,
3,4,5,6,8,1,2,3,
4,B6,{4}4/B5,{8}5/B3,B4,5,B4,
{4}4/B5,{8}4/B5,B4,,6b/3b,{16},,,,7,
3,6,3,{32}5bh[8:1]/A3f,B3,C,B7,{8}A7,{32},,,,5bh[8:1]/A7f,B7,C,B3,{4}A3,
{32}3bh[8:1]/A5f,B5,C,B1,{8}A1,{32},,,,3bh[8:1]/A1f,B1,C,B5,{2}A5,
{16}2,6,3,6,{32}4bh[8:1]/A6f,B6,C,B2,{8}A2,{32},,,,4bh[8:1]/A2f,B2,C,B6,{4}A6,
{32}6bh[8:1]/A4f,B4,C,B8,{8}A8,{32},,,,6bh[8:1]/A8f,B8,C,B4,{2}A4,
{1}Cfh[1:6]/8-2>3-5<6-8>1-3<4-6<7-1>2-4<5-7[2:7],
,,,B3/E8,
B8/B3,
{2}E1/B3,5/4,
6/3,7/2,
{16}1b/8h[16:5],2,3,4,5,6,7,8,1,2,3,4,5,6,7,8,
1/5,2,3,4,5,6,7/3,8,1,2,3,4,5/2,6,7/2,8,
1,2,3/C,4,5/C,6,7,8,1,2,3,4,5,6,7,8,
4/1,5,6,7,8/1,7,6,5,1/4,2,3,4,5/6,4,3,2,
8/1h[16:5],7,6,5,4,3,2,1,8,7,6,5,4,3,2,1,
8/4,7,6,5,4,3,2/6,1,8,7,6,5,4/7,3,2/7,1,
8,7,6,5,4,3,2,1,8,7,6,5,4,3,2,1,
5/8,4,3,2,1/8,2,3,4,8/5,7,6,5,4/3,5,6,7,
8/1b,2,3,4,1,2,3,4,2,1,8,7,6,5,4,3,
8b/2,7,6,5,8,7,6b,5,7,8,1,2,3bv8[8:1],4,5,6,
{8}7/3b/Cf,6v1[8:1],,2/6b/Cf,{4}3>3[4:3],3b/6b,
{8},,,,,,7/2,1/8,
{4}8/1,{8}6v7[4:1],6/2h[8:3],{2}6,
{4}8/1,{8}3v2[4:1],3/7h[8:3],{2}3,
{4}8h[2:1]/1h[2:1],{8},,,,3V58[2:1]/6V41[2:1],6/3,
,,,,,,7/2-4[8:1],8/1,
2/7,7-1[8:1],7,7/5,5-3[8:1],5,5/2-6[8:1],1,
8/2,8-4[8:1],8,8/5,5-1[8:1],5,5/6,7,
8h[8:3],3,2,1h[8:3],6,7,8h[4:1],3,
4h[8:3],7,6,5h[4:1],4,3,2/7-5[8:1],1/8,
7/2,2-8[8:1],2,2/4,4-6[8:1],4,4/7-3[8:1],8,
1/7,1-5[8:1],1,1/4,4-8[8:1],4,4/3,2,
1/7/B1f,7,7,8/2/B8f,2,2,1/6/B1f,5,
6,7,8/3/B8f,4,3,2/7/B7f,6,5bq2[1.1894##0.5286]/4bp7[1.1894##0.5286],
{1}5bh[1:1]/4bh[1:1],
{4}E5,{8},,,,1,8,
1h[2:1],,,,,7,1,8,
{4}1h[2:1],{8},,,,8,1,
{1}8h[1:1],
{8},,,,,2,8,1,
8h[2:1],,,,,1,2,8,
{2}7h[2:1],2h[2:1],
{8}7h[8:3],,,1h[8:9],,,{4}8h[4:3],
,,,,3/6h[2:1],
3,E5,{8}3/6,5,
{4}3/6h[2:1],3,E5,{8}3/6,4,
{4}6/3h[2:3],6,6,E5,
6,6,{8}E5,2,3,4,
3/6,7,4,{16}8,5,8,5,{8}8,7/4,7,
6/3,2,5,{16}1,4,1,4,{8}1,2/5,2,
6/3h[8:3],,,5h[8:9],,,{4}4h[4:3],
E5h[2:1],{8},,,,3/6,7/2,
{16}3/6h[8:1],2,1,8,5,6,7,8,3,4,5,6,7/4,8,1/5,2,
3/6h[8:1],2,1,8,5,6,7,8,3,4,5,6,7/4,8,1/5,2,
3/6,4,5,6,7/4,8/5,1/6,2/7,3/8,1,2,3,4,5,6,7,
8,1,2,3,4/1,5/2,6/3,7/4,8/5,6,7,8,1,2,3,4,
5/8,7,6,5,8,7,6,5,7,6,5,4,7,6,5,4,
3/6h[16:3],2,1,8,7,6,5,4,6/3h[16:3],7,8,1,2,3,4,5,
6/3,4,5,6,7,8,1/6,5,4,3,2,1,8/5,6,7,8,
1,2,3,4,1,2,3,4,2,3,4,5,2,3,4,5,
6/3h[8:1],7,8,1,4,3,2,1,6,5,4,3,2/5,1,8/4,7,
6/3h[8:1],7,8,1,4,3,2,1,6,5,4,3,2/5,1,8/4,7,
6/3,5,4,3,2/5,1/4,8/3,7/2,6/1,8,7,6,5,4,3,2,
1,8,7,6,5/8,4/7,3/6,2/5,1/4,3,2,1,8v3[8:1],7,6,5,
{32}4/8b/B8f,C,{16}B3,{8}4v7[8:1],4,{32}2/4b/B4f,C,{16}B7,{8}2v5[8:1],2,{32}1/2b/B2f,C,{16}B5,{8}1,
1v6[8:1],1,{32}3/1b/B1f,C,{16}B6,{8}4,5,{32}3b/6b/B6f/B3f,C,,,{8}7,2,
8h[4:1]/1h[4:1],,,7h[4:1]/2h[4:1],,,{4}5h[4:3]/4h[4:3],
{8},,,,,3/6,,,7/5b,
5b-2[8:1],,5/7b,{4}7b-2[8:1],{8}7/5b,5b-2[8:1],
,5/7b,{4}7b-2[8:1],{8}7/5b,5b-2[8:1],,5/6b,
{4}6b-1[8:1],{8}6/4b,4b-1[8:1],,6b/4,{4}6b-1[8:1],
{8}6/4b,4b,,4/6bx,4/6bx,4/6bx,4/6bx,4/6bx,
,3b/5,{4}3b-8[8:1],{8}3/5b,5b-8[8:1],,3b/5,
{4}3b-8[8:1],{8}3/5b,5b-8[8:1],,3b/5,{4}3b-8[8:1],
{8}4b/3,4b-7[8:1],,4/2b,{4}2b-7[8:1],{8}2/4b,4b,
,4/2bx,2bx/4x,2bx/4x,2bx/4x,2bx/4x,2bx/4x,2bx/4x,
{1},{32}B1f/B8f/1pp4[8:15]/8qq5[8:15],
C,{16}B5/B4,,,,,,,,,,,,,,,A6/A3,
{4},,,{16},,{32}B5/B4,E5,
{1}A5/A4,
E
&inote_7=(227){4},
E
