&title=Widow
&artist=Christopher Larkin
&first=1.83
&des=Sinner
&lv_5=14
&inote_5=(160)
{16}8b/1b-5[8:1],,2b/7b,,6,,6,,6,5,6,,6,,6,,6,5,6,,6,,6,,6,5,6,,6,,7,,
{16}1b/8b-4[8:1],,7b/2b,,3,,3,,3,4,3,,3,,3,,3,4,3,,3,,3,,3,
{16}5,6,7,
{24}3,4,5,6,7,8,
{16}1b-5[8:1],,7b,,7,,7,,7,5,7,,7,,7,,
{16}8b-4[8:1]/1b,,7b/2b,,2,,2,,2,4,2,,2,,2,,
{16}8b,2,7,4,6,,1b,7,2,5,3,,6b,4,7,2,8,,3b,5,2,7,1,,8b,
{16}4,3,2,
{24}6,5,4,3,2,1,
{2}8bw4[2:2]/4b,,,,
{4}1/8-4[4:1],,2h[4:1],6h[4:1],1h[4:1],5h[4:1],8h[4:1],4>5[4:3],4h[4:3],,,,
{4}63,,
{4}8/1-5[4:1],,7V53[8:3],,2h[2:1],,
{4}1h[4:1],8h[4:1],7h[4:1],6h[4:1],
{8}5h[4:1],,4,3/4h[4:1],,2,1/2h[4:1],,8,
{16}7/8h[4:1],,,,6,,1,2,3,4,8,7,6,5,
{4}4/2-6[4:1],,7h[4:1],3h[4:1],8h[4:1],4h[4:1],1h[4:1],5qq1[4:3],5h[4:3],,,,
{4}2/1,,
{4}5/7-3[4:1],,2^7[4:1],,6h[2:1],,
{16}5,6,5,6,4,5,4,5,3,4,3,4,2-4[8:1],,,,
{4}6pp3[2:1],,2h[2:1],,
{16}4,3,4,3,5,4,5,4,6,5,6,5,7-5[8:1],,,,
{4}3V51[8:3],,7h[2:1],,
{16}2,1,2,1,3,8,3,8,4,7,4,7,5-8[8:1]/6-8[8:1],,,,
{4}6-8-5-1-4-2[4:3]/5,,,,
{16},,8,7,2,3,7,6,3,4,6,5,4,,27,,1b-5[8:1],,,,
{8}17,8-4[8:1],,28,3-7[8:1],,36,5-1[8:1],,35,
{16}2,3,8,7,3,4,7,6,1b-5[8:1],,,,
{8}18,7-3[8:1],,71,2-6[8:1],,26,5-1[8:1],,15,
{16}2,3,8,7,
{24}3,4,5,6,7,8,
{16}1b/5b-7[8:1],,
{16}6,4,5,,1-3[8:1],,2,8,1,,6-8[8:1],,7,5,6,,2-4[8:1],,3,1,2,,
{16}8,7,2,3,
{24}6,5,4,3,2,1,
{16}8b/4b-1[8:1],,
{16}3,6,4,,7-4[8:1],,6,1,7,,3-8[8:1],,2,5,3,,6,,7,4,6,5,
{16}8,3,6,4,1,2,6,3,8bV27-3-6-4[1:1],,8b/3h[8:9],,,,
{8},,,,,,,,,3,4,5,6,1bV72-6-3-5[1:1],1b/6h[8:9],,,,,,,,,,,
{16}6,4,3,2,
{24}6,5,4,3,2,1,
{16}8b-4[8:1],,2b,,2,,2,,3,4,3,4,2,,2,,
{16}1b-5[8:1]/8b,,2b/7b,,7,,7,,6,5,6,5,7,,7,,
{16}1b,7,2,5,3,6,2b,7,3,5,4,6,4b,6,3,8,2,7,3b,6,2,8,1,7,2b,
{16}5,6,7,
{24}3,4,5,6,7,8,
(165)
{8}1b,5b/3b,
8/2,5/6,7-4[8:1]/1,3-8[8:1]/4,7,3,
{8}5b,7b/1b,4/6,7/8,3/5-8[8:1],1-4[8:1]/8,5,1,
{8}6b,1b/7b,5/3,8/1,6-1[8:1]/4,2-5[8:1]/1,6,2,
{16}7,6,2,3,
{24}8,7,6,1,2,3,
{24}7,6,5,2,3,4,
{32}8,7,6,5,4,3,2,1,
{8}8b,5b/6b,
{16}1,7,4,6,
{8}2-5[8:1],4/5-1[8:1],2,7,
{8}8b,4b/3b,
{16}8,2,5,4,
{8}6-1[8:1],8/1-5[8:1],6,3,
{16}3,4,3,4,1,8,1,8,5,6,5,6,1,8,1,8,
2,7,1,8,2,7,1,8,2,3,7,6,3,4,6,5,
{16}1,5,1,5,1,5,1,5,
3,6,3,6,4,7,4,7,2,7,2,7,2,5,2,5,3,5,3,5,4,7,4,7,
4,3,2,1,8,7,6,5h[4:1],8,1,2,3,4,5,6,7h[4:1],4,3,2,1,8,7,6,5,
{16}8-4[8:1]/4,,,,,,,,
2,6,2,6,2,6,2,6,
4,7,4,7,4,7,4,7,3,6,3,6,1,6,1,6,1,5,1,5,3,5,3,5,
{16}1b,7,2,5,3,3,8b,2,7,4,6,6,3b,5,2,7,1,1,6b,4,7,2,8,8,3bs7[8:1],,,,,,,,
{16}1,8,1,8,2,7,2,7,3,4,5,6,8,7,6,5,
{16}3,4,3,4,2,5,2,5,1,2,3,4,1,8,7,6,
{16}4,5,4,5,3,6,3,6,4,3,2,1,4,5,6,7,
{16}1,2,3,4,1,2,3,4,8,7,6,5,8,7,6,5,
{16}3,4,3,4,2,5,2,5,1b,8,7,6,1b/5,4,3,2,
{16}6,5,6,5,7,4,7,4,8b,1,2,3,8b/4,5,6,7,
{4}8v6[8:1]/4v2[8:1],,3h[4:1]/7h[4:1],,
{16}3,7,3,7,2,6,2,6,1b,8,7,6,5b/1b,48,37,26,
{4}1pp3[8:1]/5pp7[8:1],,2h[4:1]/6h[4:1],,
{16}1b-3[8:1]/5b-7[8:1],,,,1b-5[8:1]/5b-1[8:1],,,,1b/5b,,,,27,,,,
{24}1b,8,1,8,1,8,1,8,1,8,1,8,1,8,1,8,1,8,1,8,1,8,1,8,2b,7,2,7,2,7,2,7,2,7,2,7,
{4}3h[4:1]/6h[4:1],,
{16}3b,4,3,2,
{16}3,5,4,6,
{16}2b,1,2,3,
{16}2,8,1,7,
{16}3b,5,3,1,
4,6,2,8,
3b,5,1,7,
{24}3,2,1,8,7,6,
{8}5b/4b,8b/7b,4/6,1/2,5/6,2/8,4/3,7/1,
4b/5b,1b/2b,5/3,8/7,4/3,7/1,5/6,1/8,
{16}2,7,2,7,1,8,1,8,2,7,1,8,2,7,1,8,2,3,84,7,16,2,73,6,25,3,4,
{32}8w4[8:1],7,6,5,4,3,2,1,8b-2-7-3-6-4[4:3],,,,
