&title=ヒミツ
&artist=MIMI / 可不
&first=-0.8
&des=StarRy / 執音
&des_5=StarRy / 執音
&lv_5=13
&inote_5=(168){4},,,,,E1/B1,
,E3/B3,
,E7/B7,,B5/E5,
,E2,,E6,
,E4,,E8,
,3/6h[8:3],{8},4,{4}3h[8:3],
{8},4,{4}5h[8:3],{8},4,{4}3h[8:3],
{8},5,{4}6h[8:3],{8},5,{4}4h[8:3],
{8},5,{4}5h[4:1],4,{8}4,4,
5,5,{4}3h[4:1],{8},5/6,{4}6h[4:1]/5h[4:1],
{8},4/3,{4}3h[4:1]/4h[4:1],{8},5/7,{4}7h[4:1]/5h[4:1],
{8},4/2,{4}2h[4:1]/4h[4:1],{8},4/5,{4}5h[4:1]/4h[4:1],
{8},3/6,{16}E7,B6,B5,E5,E3,B2,B1,E1,E8,B7,B6,E6,
{4}4,{8}5/6,{16}3,4,{8}3,2,1-5[8:1],2,
6-1[8:1],7,{4}2q8[4:1],8p2[4:1],1,
{8}7,7,6/5,{16}3,4,{8}2V46[4:1],1,6-2[48:7],7,
8,1,8<5[8:1],3qq5[16:5],8,3,,,7,
7,6/5,{16}3,4,{8}3,2,1-5[8:1],2,
7-4[8:1],6,{4}3V16[4:1],6V84[4:1],5,
{8}5,5,{4}4/3,1/2,{8}8/7,6,
5/4,3,{4}1/2h[4:1],C,{8}E4,E8,
E2,E6,{4}4h[2:1],,5h[2:1],
,4h[8:5],{8},,,5x,
{4}5x/4x,{8}7,8-4[8:1],1,2<5[32:7],,2,
5,7,{4}8-4[8:1],{8}3/8-6[32:3],2,{4}8/1-5[8:1],
{8}8/1,7,6,5/4-8[8:1],3,2<5[32:7],,2,
5,8,2x-4[32:3],1-5[8:1],2<4b[48:11],1,{4}2,
7-3[8:1],7-5[48:5]/1-5[48:5],1/7,{8}3,2,
1/8,7,{4}6/5-1[8:1],{8}3/5,2<7[8:1],,2/6,
5,4,1>4[8:1],6pp4[16:5],1,6,,3,
3,2,1/8,7,6/5,4,3bqq4b[32:9]/5bpp4b[32:9],2b/6b,
5b/3b,,,6,5,4/7>4[32:7],,7,
4,2,{4}1V38[4:1],{8}8-4[48:7],7,{4}6,
{8}3,2,1,5-1[8:1],6,7>4[32:7],,7,
4,1,7x-3[32:3],8-4[8:1],7>5b[48:11],8,{4}7,
1w5[8:1],1,{8}6,7,8,1,
2,3,8<5[8:1],3qq5[16:5],8,3,,6,
6,7V53[4:1],8,3-7[48:7],2,1,,2,
2,3,4/5,6,7-1[32:3],2-6[8:1],7V53[16:3],2,
{4}7,{8}1,2,4/3x,{16}6,5,{8}6,7,
8x/1,2,3/4,2,1x/8,{16}7,5,{8}6,4/3,
2x,1,8/7,6,5x,{16}3,4,{8}3,2,
8/1x,7,6/5,7,8x/1,{16}2,4,{8}3,5/6,
7x,8/1,{16}3x,4,3,4,2x,1,2,1,5x,6,5,6,
8x,7,8,7,1x,2,3,4,5/2x,3,4,5,6x/3b,4,5,6,
7x/4b,5,6,7,{4}4b/8xh[16:7],{8}3,2,{4}1,
{8}7/1,6/2,{4}5/3,{8}D2/E2,D6/E6,E4/D4,D8/E8,
{4}E2/D2,5x/4xh[4:1],{8}5,5,{4}4/6h[8:3],
{8}5,4,{4}3h[8:3],{8}5,6,{4}7h[8:3],
{8}4,3,{4}2h[8:3],{8}7,6,{4}5h[8:3],
{8}2,3,{4}5/4h[4:1],5,{8}5,4,
6,3,{4}4/5h[4:1],{8}3,3,{4}4/2h[4:1],
{8}6,5,{4}4/7h[4:1],{8}4,5,{4}6/3h[4:1],
{8}5,5,{4}4/6h[4:1],{8}3,4,{4}5/2h[4:1],
8-6[8:1]*-5[8:1],8-3[8:1]*-2[8:1],8w4[8:1],8x,
1b,{8}2x,{16}2,4,{8}3,3,3/7-1[32:3],3,
4/7,4,{4}2-4[32:3]/6-4[32:3],6-8[32:3]/2-8[32:3],6/2,
{8}1,8,7x,{16}7,5,{8}6,6,6/8,6,
6/3-5[8:1],6,6/3,6,7/2-6[8:1],7,{4}7/2,
{8}5,4,3x,{16}3,4,{8}2,2,2/7-3[8:1],2,
7/2,2,{4}4-8[8:1]/2-5[8:1],4/2,3/7,
{8}8/2,8/2,{4}8v5[8:1]/2v5[8:1],8/2,{8}4,5,
3,6,{4}5/4,6/3,5/4w8[8:1],
4,2/6,{8}3,{16}2,1,{8}2-6[8:1],8,
7>4[32:7],7,{4}4,{8}1,{16}2,4,{8}3V15[4:1],3,
5-3[32:3],6,{4}7,{8}7,{16}7,8,{8}6v1[8:1],1,
2<5[32:7],2,{4}5,{8}8,{16}7,5,{8}6V84[4:1],6,
4-6[32:3],3,{4}2,{16}3,4,2V46[4:1],5,{8}1,6-2[48:7],
7,8,8v5[8:1],8,4v1[8:1],4,{4}6,
{8}2/8,7/3,{4}6/4,{8}4/5,3,8/2,7,
6,5,3,2,1,7,2,6,
3,5,{4}4h[2:1],,5h[2:1],
,4h[2:1],,5,
,6h[2:1],,3h[2:1],
,5w1[4:1],{8},,,3b/7b,
{4}7b/3b,{8}2,1-5[8:1],8,7>4[32:7],,7,
4,2,{4}1-5[8:1],{8}6/1-3[32:3],7,{4}1/8-4[8:1],
{8}1/8,2,3,4/5-1[8:1],6,7>4[32:7],,7,
4,1,7x-5[32:3],8-4[8:1],7>5b[48:11],8,{4}7,
2-6[8:1],2-4[48:5]/8-4[48:5],8/2,{8}6,7,
8/1,2,{4}3/4-8[8:1],{8}6/4,7>2[8:1],,7/3,
4,5,8<5[8:1],3qq5[16:5],8,3,,6,
6,7,8/1,2,3/4,5,6bpp5b[32:9]/4bqq5b[32:9],7b/3b,
4b/6b,,,3,4,5/2<5[32:7],,2,
5,7,{4}8V61[4:1],{8}1-5[48:7],2,{4}3,
{8}6,7,8,4-8[8:1],3,2<5[32:7],,2,
5,8,2x-6[32:3],1-5[8:1],2<4b[48:11],1,{4}2,
8w4[8:1],8,{8}3,2,1,8,
7,6,1>4[8:1],6pp4[16:5],1,6,,3,
3,2V46[4:1],1,6-2[48:7],7,8,,7,
7,6,2-6[8:1],6-3[8:1],2,7,{4}5b-1[8:1],
5bpp4b[2:1]/3bqq4b[2:1],5b/3b,{24},,,,,,,,,E5,B5,B6,
{8}E7,2,3/4,4/5,5/6,7h[4:1],{24},,,5,6,4,
{8}5h[4:1],2,1,8,7,6,,3,
4/5,6,7,8h[8:1],4,7h[8:1],4,6h[8:1],
{4}5b-1[8:1],{8}7,8-4[8:1],1,2<5[32:7],,2,
5,8-4[8:1],7-3[8:1],8<1[32:9],7,8,,8,
7,6,5<3[4:1],2,3,4,4>6[4:1],7,
6,5,4-8[8:1],3,4/5-1[8:1],6,{4}5/4,
3-8[8:1]/7-4[8:1],3/7`Cf,,1h[2:1],
,2h[2:1],,3h[2:1],
,4h[2:1],,5h[2:1],
,6h[2:1],,3,
{32},,,,,,,,Ch[16:1],B5/B4,
E
