&title=Rebirth of the MYTH
&artist=s-don
&first=0
&des=传奇的复活
&lv_5=14
&inote_5=(155)
{4}
,,,,
,,,3>6<3[4:7],
{8}
3/5h[4:3],,,,,,,,
B5/E5,,,,,,7>4>7[4:7],,
7/3h[4:3],,,,,,,,
B2/E2,,,,,,1,,
1s5[4:2]/7h[2:1],,,,,,6,,
5xV71[4:2]/6x-2[8:3],,,,,,3,,
1<4[2:1]/3h[2:1],,,,,,2V86qq5b[4:3],,
7bhx[4:2],,,,,,E6/B5/B6,,
{16}
8bhx[8:1]/2bhx[8:1],,,8bhx[8:1]/2bxqq3[8:3],,,8bx/2bx,,,,,,5x,,,,
6bhx[8:1]/4bhx[8:1],,,6bxV48[16:5]/4bhx[8:1],,,6bx/4bx,,,,,,2x,,,,
1bhx[8:1]/7bhx[8:1],,,2bhx[8:1]/6bhx[8:1],,,5bx/3bxpp3[4:1],,,,,,8x,,,,
2bhx[8:1]/7bhx[8:1],,,6bhx[8:1]/3bhx[8:1],,,4bx/5bxpp6[4:1],,,,,,2x,,,,
3,,3,,5,,5,,4,,4,,6,,6,,
35,,3,,46,,6,,37,,37,,26,,26,,
1,7,1,7,2,8,2,8,1,7,1,7,2,8,2,8,
2hx[4:1]/7x-3[8:1],,,,,,E3,B2,C,B6,E7,,8-4b[16:1],,4,,
{16}
8bx,,,,3,5,,6,4,,46,,37,,2,,
26,,4,3,,5,4,6,3,7,3,7,2-4[8:1],,,,
7x,,,,6,5,,3,4,,53,,62,,7,,
73,,5,6,,3,3,5,2h[16:3],,,4h[16:3],,,6h[8:1],,
4x,,,,3,5,4,6,5,,47,,38,,2,,
16,,4,3,5,4,6,5,7,3,7,3,7-5[8:1],,,,
2x,,,,3,6,4,5,3,,26,,26,,1,,
7<4[8:1],,7,,1>4[8:1],,1,,5-1[8:1],,5,,,,,,
3bh[8:1]/7bh[8:1],,,,24,,3,5,2h[8:1],,6,4,7h[8:1],,3,5,
2h[8:1],,6,4,7,,4,6,4v7[8:1],5,3,,2x,,,,
6hx[8:1]/2hx[8:1],,,,65,,7,4,6h[8:1],,2,5,3h[8:1],,7,4,
6h[8:1],,2,5,3h[8:1],,8,,26,,,26,,,78,,
5bh[8:1]/2bh[8:1],,,,53,,6,4,7h[8:1],,2,4,1h[8:1],,6,4,
7h[8:1],,2,4,1h[16:1],,4,2,5-1[8:1],3,6,,7x,,,,
8hx[8:1]/3hx[8:1],,,,46,,3,5,2h[8:1],,6,4,8h[8:1],,3,5,
2x/6x,,1,8,1,8,1,8,2,7,2,7,1-5[8:1],8,2,7,
1b,,,,6-8[8:1],,7,,56,,4,,36,,2,,
1>4[8:1]/5,,8,,7-3[8:1]/1,,6,,7/5,,,,4,,3,,
82,,7,,6-8[8:1]/4,,7,,26,,1,,27,,3,,
4>1[8:1]/8,,5,,6-3[8:1]/4,,7,,68,,,,1,,2,,
35,,6,,3-1[8:1]/7,,2,,43,,5,,63,,7,,
8<5[8:1]/4,,1,,2-6[8:1]/8,,3,,24,,,,5,,6,,
71,,2,,3-1[8:1]/5,,2,,73,,8,,72,,6,,
5<8[8:1]/3,,4,,3qq3[4:1]/5,,4,,35,,,,4<3b[4:4],,,,
4bx/8x-5[8:1],,,,,,,,4x-1[8:1],,,,,,,,
1x-4[8:1],,4x-1[8:1],,,,,,5x-8b[8:1],,8x-5b[8:1],,,,,,
1bqq6[8:5],,,,4h[16:1],,4h[16:1],,3,,3,,2h[8:1],,,,
,,3,,6pp6[4:1]/4,,5,,4h[8:1]/6,,,,5>6[4:4],,,,
5bx/1x-4b[8:1],,,,,,,,5x-8b[8:1],,,,,,,,
8x-5b[8:1],,5x-8b[8:1],,,,,,4x-1[8:1],,1x-4[8:1],,,,,,
8bpp3b[8:5],,,,5h[16:1],,5h[16:1],,6,,6,,7h[8:1],,,,
,,3,6,2,5,4,7,E2,E6,E4,E8,B3/E3,B7/E7,B1/E1,B5/E5,
{8}
Cf,,,,,,,,
,,,,,,,,
3h[4:7],,,,,,,,
6h[4:3],,,,,,,,
E2,,E3,,E4,,E5,,
E6,,E7,,E8,,E1,,
2,2,3,3,4,4,5,5,
6,6,7,7,Ch[4:1],,,,
2bV48[4:1]/5,,,B7f,,,,,
8bV26[4:1]/4,,,B2f,,,,,
3bV15[4:1]/7,,,B2f,,,,,
2bV41[4:1]/6bV85[4:1],,,B7f,,,,,
{32}1bx,2x,3x,4hx[32:21],,,,,,,,,1bx,8x,7x,6hx[32:9],,,,,,,,,,,,,,,,,
8bx,7x,6x,5hx[32:21],,,,,,,,,8bx,1x,2x,3hx[32:9],,,,,,,,,,,,,,,,,
{32}5bx,6x,7x,8hx[32:21],,,,,,,,,5bx,4x,3x,2hx[32:9],,,,,,,,,,,,,,,,,
8bx/1bx,2x/7x,3x/6x,4x/5x,,,,,,,,,5bx/4bx,3x/6x,2x/7x,1hx[32:9]/8hx[32:9],,,,,{8},,,
2,2,1h[8:1]/3h[8:1],,7,7,8h[8:1]/6h[8:1],,
3,3,4h[8:1]/2h[8:1],,6,6,5h[8:1]/7h[8:1],,
12,12,8h[8:1]/3h[8:1],,45,45,3h[8:1]/6h[8:1],,
87,87,1h[8:1]/6h[8:1],,7x-3[8:1]*-3[8:1]/2hx[4:1],,,,
21,2,23,3,34,4,45,5,
56,6,67,7,78,8,81,1,
{16}2,4,3,5,4,6,5,7,4,6,3,5,
{32}2,3,4,5,6,7,8,1,
{16}2xh/7-3b[8:1],,,,3,,2,,1xw5b[8:1],5x,3x,7x,A1f,,,,
{16}
2b,6,3,4,1<6[8:1],7,3,5,1>4[8:1],,4,,1,,6,6,
3,8,5,7,2<4[4:1],,84,,2b/6b,,,,8<5[8:1],3,1,2,
8b,,2,2,4<7[8:1],3,5,1,4b,,3,8,5,7,3,5,
1b-5[8:1],,8,8,1x/7bx-3[8:1],,6x,,7b/4b>1b[8:1],,,,8,,,,
7b,8,6,4,8,2,5,3,7,5,1,2,6,8,4,3,
7,5,1,2,6<1[8:1],,35,,6b/1b,,{24}2,3,4,{16}5>2b[8:1],,8,,
6b,,7,7b/8b,,1,8b/2b,,3b/7b,,{24}5,4,6,
{16}5,,84,,
2b,7,8,6,3,4,2h[8:1],,
{48}7bx,6,5,4,,,,,,,,,8bx/1bx,2/7,3/6,4/5,,,,,,,,,
{16}3b>8[8:1],4,2,4,3,6,5,4,2,8,4,6,2>5[8:1],7,1,5,
2<7[8:1],,7,7,2V48[4:1],,5,5,2,,8,,6<1[8:1],,2,,
6b/4,,3,3,1-5[8:1],2,8,4,1b,,2,6,8,5,4,7,
2b-6[8:1],,1,1,2x/8bx-4[8:1],,7x,,8b/5b>2b[8:1],,,,1,8,7,6,
3b,4,2,8,4,6,1,7,3,1,5,6,2,4,8,7,
3,1,5,6,2>5[8:1],,78,,2b/5b,,{24}6,7,8,{16}1<6b[8:1],,4,,
2b,,3,3b/4b,,5,4b/6b,,7b/3b,,{24}2,8,2,
{16}8,,17,,
6b,3b,4b,2b,7b,8b,6bh[8:1],,
{32}1b,2,3,4,5,6,7,8,1b/5bw1[16:1],,,,,,,,
{16}5bx`Cf,,,,,,3bhx[8:3]/7bhx[8:3],,,,,,,,,,
5bx<3[2:1],,,,,,1bhx[8:3],,,,,,,,,,
3bx>5[2:1],,,,,,4bhx[8:3],,,,,,,,,,
3bx-7[16:1]/7bx-3[16:1],,,,,,1bhx[8:3]/5bhx[8:3],,,,,,,,,,
3x,4,3,4,2,5,1x,6,1,6,1,6,2,7,2,7,
3x,8,3,8,4,7,5x,6,5,6,5,6,4,6,3,5,
1b,4,3,4,1b,5,4,5,1b,6,5,6,{32}1b,2,3,4,5,6,7,8,
{16}1/6x,,3,,57,,8,,6V85[4:1]/5-2-4[4:1],,74,,5>1<8<7<6>5>4b[1:1]/6,,,,
{8}
,,,,,,,,
{32}2bx,B2,Cf,B6,,,,,
