&title=GC ベビィパーク
&artist=永田権太
&first=0.23
&des=Zamykal
&lv_5=14
&inote_5=(170.05)
{16}6,5,,3,4pp7b[8:3],,2/5,,,,,,,,,,
{16}1b,,3,4,3,,6,,5/7,,8,,2/4,,3,,
{4}6-8[8:1],1-5b[8:1],4-2[8:1],6,
{16}4/8,,7,5,6,,2,,1/2,,3,,3/4,,6,,
{4}5/6-4b[8:1],3-7[8:1],8-2b[8:1],3,
{8}4,5,6,6h[8:3],4,3,2,2h[8:3],
{8}6,7,8h[4:1],1,1w5[8:1],,1,,
{16}7,,3,4,3,,2,,5/6,,8,,3/4,,1,,
{4}1-3[8:1],1/4-8b[8:1],4/7-5[8:1],1/7,
{16}3b,,3,4,2,,6,,7/8,,1,,2/4,,3,,
{4}4/5<8[8:1],1>4b[8:1]/5,1/5<8[8:1],1/5,
{16}2,,2,4,3,,5,,4/6,,7,,1/8,,7,,
{4}3/7>2b[8:1],3<6[8:1]/7,3/7>2b[8:1],3/7,
{8}4,3,2/5,2/5,6,7,4/8,4/8,
{8}3/7,1,3/7,5,8-5[8:1]/4-1[8:1],,8/4,,
{16}2/6,,3,5,4,,8,,1/7,,2,,2/8,,7,,
{4}1>4[8:1]/7,1/5<1b[4:1],1>5[4:1]/5,,
(180.1)
{16}1b,,2,8,2,,3,,1/7,,6,,4/5,,3,,
{4}8-4[8:1]/2,8/3-1b[8:1],7-5[8:1]/3,7/4,
{16}2/8,,7,1,7,,6,,4/5,,3,,4/5,,7,,
{4}7-3b[8:1]/1,7/2-8[8:1],6-4b[8:1]/2,6/3,
{8}4/3,7,6/5,2,5/3,8,6/4,1,
{8}5/2,3,7/4,6,5/1w5[8:1],,1,,
{16}8/2,,7,1,7,,2,,4/3,,7,,6/5,,2,,
{4}2-4b[8:1]/8,2/1-5[8:1],8-6b[8:1]/1,8/4,
{16}5b/3b,,2,4,2,,8,,7/1,,6,,5/4,,3,,
{4}3<6[8:1]/7,7>2b[8:1]/3,7/3<6[8:1],7/3,
{16}8,,3,4,3,,2,,1/8,,7,,5/6,,4,,
{4}6/4>1b[8:1],8<5[8:1]/4,8/4>1b[8:1],7/4,
{8}3,4,5/7,5/7,6,5,2/4,2/4,
{8}3/8,7,1/6,2,3-8[8:1]/7-4[8:1],,3/7,,
{16}1/5,,2,4,3,,7,,4/6,,3,,2/8,,7,,
{4}3/7>2[8:1],3<7b[4:1]/7,3/7>3[4:1],,
(190.8)
{16}6b,,7,7,5,,3,,2/4,,2/4,,1/8<7-5[8:1],,7,,
{4}4>3-1b[8:1]/8,4/8<7-5[8:1],4>3-1b[8:1]/8,4/7,
{16}6,,2,2,4,,5,,4/6,,7,,3<4-6b[8:1]/5,,2,,
{4}3/7>8-2[8:1],3<4-6b[8:1]/7,3/7>8-2[8:1],4/7,
{8}3/5,2,4/6,7,3/4,1,5/6,8,
{8}2,4,3/5,7,1w5[8:1]/8,,1,,
{16}8,,3,3,4,,6,6,5,,7,,4>3-1[8:1],,4,,
{8}8<7-5b[8:1],8,4>3-1[8:1],4,8<7-5b[8:1],8,4,,
{16}2b/4b,,3,3,1,,6h[4:1],,8,,3h[4:1],,1,,5h[8:1],,
{4}8>2-4[4:1],4<6-8b[4:1],8>2-4[4:1],4,
{16}6,,7,7,5,,2,,4/3,,7,,6/5,,3,,
{4}3>1-7b[4:1],7<5-3[4:1],3>1-7b[4:1],7,
{8}4<6[8:1],4,3,2,1>3b[8:1],1,8,7,
{4}6-8[8:1],2-4b[8:1],5v2[8:1]*v8[8:1],5,
{16}3/7,,6,4,5,,2,4,3,,7,5,6,5,7,,
{4}4/8<7-5[8:1],4>3-1<8b[4:1]/8,4/8<7-5>4[4:1],,
(202.2)
{16}8b,,7,5,6,,4/7,,5/6,,2,4,3,,2/5,,
{8}3-1[8:1]/4,1-3b[8:1],3,,6-8[8:1],8-6b[8:1],6,,
{8}1>4[8:1],4,1/6,,8<5b[8:1],5,8/3,,
{8}2,3/4,7,5/6,4-1[8:1]/8-5[8:1],,4/8,,
{16}2,4,3,4,3h[8:1],,,,6,5,7,5,7h[8:1],,,,
{16}3,4,2,4,1h[8:1],,,,8,5,7,5,6h[8:1],,,,
{8}3,2/4,3,4,6,5/7,6,5,
{8}2/4,3,5/7,6,1-5[8:1]/8-4[8:1],2/7,1/8,,
(214)
{16}6b/3b,,7,5,7,,6/3,,6/3,,2,4,2,,5/4,,
{16}5/4,,6,5,6,,5/4,,5/4,,3,4,3,,5/2,,
{8}5/2,1,4/2,3,7/4,8,7/5,6,
{8}5/4,4/3,5/4,6/5,5-8[8:1]/4-1[8:1],,5/4,,
{16}6,5,6,5,7,,7,,3,4,3,4,2,,2,,
{16}7,5,7,5,6,,6,,2,4,2,4,3,,3,,
{8}1-6[8:1],1,3-8b[8:1],3,5-2[8:1],5,7-4b[8:1],7,
{8}1,2,3/8,7,2-6[8:1],6-2b[8:1],2,,
(226.95)
{16}7,,3bh[8:1]/7bh[8:1],,,,6,5,6,,3,,3/4,,2,,
{4}1/2b-4[8:1],1b-5b[8:1]/2,1/8b-4[8:1],7b-5b[8:1]/8,
{8}7/8,1,2/4,3,5/7,6h[4:1],,1,
{8}3/4,8,5/6,2,3h[8:1]/4h[8:1],,5h[8:1]/6h[8:1],,
{16}4/7,,4bh[8:1]/7bh[8:1],,,,6,5,6,,3,,3/4,,2,,
{4}1/2b<7[8:1],5b>2b[8:1],8b<5[8:1],3b>8b[8:1],
{8}4,5,6,7,1/5,3,4/8,6,2/5,3,4/7,6,4/5,{16}3,4,3,,2/5,,
{16}7b,,7,8,7,,6,,1/2,,3,,4/5,,6,,
{4}5/6b-8[8:1],1b-5b[8:1]/6,1/4b-2[8:1],4/6b,
{16}1/8,,2,4,3,,6,,5/7,,8,,1/2,,3,,
{4}3b<6b[8:1]/4,3/7b>2[8:1],3b<6b[8:1]/7,3/7b,
{8}8-6[8:1],5,8,4,5-1b[8:1],4,5,3,
{8}3-1[8:1],8,3,7,8-4b[8:1],7,8,6,
{16}3/5,,2,1,2,,4,,3/5,,6,,5/7,,8,,
{4}4/8b<7-5[8:1],4b>3-1b[8:1]/8,4/8b<7-5[8:1],3b/8,
{16}1b,,6,5,7,,3,4,2,,6,5,7>1-3[4:1],5,6,,
{4}3b<5-7b[4:1],7b>1-3[4:1],3b<5-7b[4:1],7b,
{16}1,,2,4,3,,7,5,6,,2,4,3-8b[8:1],4,3,,
{8}3b/7-4[8:1],7,2-5b[8:1]/7b,2,2b/6-1[8:1],6,4/6b,4,
{8}3/5,2,4/6,7,3/4,1,5/6,8,
{4}3-8[8:1]/7-4[8:1],3<6[8:1]/7,3/7>2b[8:1],3/7,
{16}5/4,,3,4,3,,6,5,6,,2,8,3,7,4,6,
{4}4b-1[8:1],4/7b<3b[4:1],3b>7[4:1]/7,,
{8},,E
