&title=幻想嘉年华 (OP size)
&artist=栗林みな実; 橋本みゆき; yozuca*; Faylan; rino; 美郷あき
&first=0.024
&des=Amia_QieG
&lv_5=12+
&inote_5=(92)
{16},,
{8}1bx>6p1b[184#2:1]/Chf[8:3],,,,
{16}8/1,8/1,,
{16}7/1,1b/7bh[8:1],,2,,3-8[184#8:1]/4-7[184#8:1],,4b/3b,,
{16}6,,2/8,2h[4:1],,8,7,6,5bv8[184#8:1]*v2[184#8:1],,5b,,3h[8:1],,8,,6h[8:1],,1,,3qq4b[184#3:1]/5pp4b[184#3:1],,,,,,
{16}8x/3x,7x/4x,6x-1[184#8:1]/5x-2[184#8:1],,5bx/6bx,,8h[8:1],1,2,3h[4:1],,5,6,7,8bv5[184#8:1]*v3[184#8:1],,8b,,2h[8:1],,1,,7h[8:1],,8,,1,5,4,8,E2,E6,E4,E8,
{16}2/1,,8/7,,2/1,,8/7,,2/1,,5-7[184#8:1]/4-7[184#8:1],,5bx-2[184#8:1]/4bx-2[184#8:1],,5bx/4bx,,
{16}8/7,,1/2,,7/8,,1/2,,7/8,,5-7[184#8:1]/4-7[184#8:1],,5bx-2[184#8:1]/4bx-2[184#8:1],,5bx/4bx,,
{16}7/1,,8/2,,1/7,,8/2,,1/7,,5-7[184#8:1]/4-8[184#8:1],,5bx-1[184#8:1]/4bx-2[184#8:1],,5bx/4bx,,
{16}8/7,,6/3,,1/8,,6/3,,1/8,,5-7[184#12:1]/4-2[184#12:1],,5bxw1b[184#4:1]/4bxw8b[184#4:1],,5bx/4bx/A5f/A4f,,
{16},,6pp2[184#8:5],,6,1,2,3,,4h[16:3],,,,5,6<2v4b[184#16:8],3h[4:1],,,,
{8},
{16}1,8,1/B6,,7/B4,,E8/3xqq7[184#8:4],,3,7,6,5xh[8:1],,8>5[184#2:1],,8,7,6,5p8[184#4:1],,7h[8:1],,,,
{16}2pp5[184#16:9]/1qq6[184#16:9],8/3,1/2,,
{8},,
{16}7-4[184#8:1],8,7b,,3qq8[184#8:5],5,3b,,,,,7h[8:1],,5,,2h[16:1],4pp7[184#2:1],4,1,,2-5b[184#8:1],2,,,
{16}8-3[184#8:1]/1-6[184#8:1],7/2,8/1,,5h[16:1],Ch[16:1],,4h[16:1],Ch[16:1],,2-5[184#8:1],7-4[184#8:1],2,7,,,,6b/3b,,1h[8:1]/2-5[184#8:1],,2,,8h[8:1]/7-4[184#8:1],,7,,1-4[184#8:1],8qq5[184#2:1],1,8,,4h[8:1],,,,
{16}7/2,1/8,,
{24}6,5,7,3,4,2,
{16}8h[8:1],,2,2pp6[184#2:1],
{8},,
{16}4hbx[16:3],,,6xpp2[184#8:9],,,,,,,
{8},,,
{16}6<3[184#4:3],,,,C,,,,6<3b[184#2:1],,,,C,,,,
{8}5bx/4bx,
{16}3qq7[184#4:5],,,4>7b[184#8:7],,,,,,,
{8},,
{16}5-8[184#8:4]/4-1[184#8:4],,,,,,
{8},
{16}3-7b[184#2:1]/6-1-4b[184#2:1],3/6,,,
{8},,6x/3x,
{16}2/8,1-4[184#4:1],8,1,8qq5[184#2:1],,8,,,4-1b[184#8:1],,4bx,
{8},
{16}7-4[184#8:1]/1,,2/7,1-4[184#8:1],,1,5,,81,54,,81,54,,81,,
{8}6bpp1b[184#2:1]/Cf,,
{16}2pp5[184#4:3],2,,8x,,7,6-1b[184#4:1],,6,4x,,
{16},1/2,8/3,7/4,6/5,{24}2,1,3,7,8,6,{16}7/8,6/1,5/2,{8}3-7b[184#8:1]/4-7b[184#8:1],3bx/4bx,,
{16}5bx-8[184#6:1]/4bx-1[184#6:1],6bx/3bx,5bx/4bx,,,
{16}8x/3x,7x/4x,6x-1[184#8:1]/5x-2[184#8:1],,5bx/6bx,,1xh[8:1],8,7,6h[4:1],,4,3,2,1bv4[184#8:1]*v6[184#8:1],,1b,,7h[8:1]/8-4[184#8:1],,8,,2h[8:1]/1-5[184#8:1],,1,,
{16}5xqq5b[184#3:1]*pp5b[184#3:1],,5,,,,
{16}1x/6x,2x/5x,3x>8[184#8:1]/4x<7[184#8:1],,3bx/4bx,,7xh[8:1],8,1,2h[4:1],,4,5,6,7bv4[184#8:1]*v2[184#8:1],,7b,,5h[8:1]/1-6[184#8:1],,1,,4h[8:1]/8-3[184#8:1],,8,,
{16}1,6,3,8,1/7,1/7,2/6,2/6,5-8[184#8:1]/3-8[184#8:1],,3b/5b,,
{16}1xpp4[184#4:3],8h[8:1],1,,,5,6,7,8v5[184#8:1]*v2[184#8:1],,8b,,
{16}4x-6[184#8:1],,4x-1b[184#8:1],,4x-7[184#8:1],,4x-2b[184#8:1],,4x-8[184#4:1],,4x,2,2h[8:1],,
{16}7h[8:1],3,4w8[184#8:1],,4b,,2xh[4:1],1,8,7,6h[4:1],5,4,3,2bv5[184#8:1]*v7[184#8:1],,2b,,
{16}6x-2[184#8:1],7x/5x,6x,,3x-7[184#8:1],2x/4x,3x,,
{32}1x,2x,3x,4x,5x,6x,7x,8x,1x,2x,3x,4x,5x,6x,7x,8x,,,
{16}2h[16:1]/1h[16:1],,8h[16:1]/7h[16:1],,2h[16:1]/1h[16:1],,8h[16:1]/7h[16:1],,2/1,4-2[184#8:1]/5-2[184#8:1],,4bx-7[184#8:1]/5bx-7[184#8:1],,4bx/5bx,,,
{16}2h[16:1]/8h[16:1],,1h[16:1]/7h[16:1],,8h[16:1]/2h[16:1],,1h[16:1]/7h[16:1],,8h[16:1]/2h[16:1],,1/7,2b>4[184#8:1],4b<6[184#8:1],6b<8[184#8:1],8b>5p8b[184#2:1],
