&title=BABYLON
&artist=SHIKI
&first=0
&des=Youmu@HARD RENAISSANCE
&lv_5=13+
&inote_5=(190)
{1},,,,
{8},,,,,,,1/8,2h[4:15]/7b,,7,,,,7,,,,7,,,,7,,,,6,,,,5,,,,4,,,,4,,8h[4:12],,3,,,,3,,,,3,,,,3,,,,2,,,,1,,1,,2/7,,4/6,,8/3,,
{8}2b-6[8:1]/1b-5[8:1],,2/1,,3,2-6[8:1],,2/1-5[8:1],,1/8-4[8:1],,7-3[8:1]/8,,7/3,,5,4,,2-6[8:1],5-1[8:1],2,5,,3,,1-5[8:1],5-7[8:1],7V53[4:1],,,,,7v4[8:1]/8v3[8:1],,7/8,,6,7-5[8:1],,7/8-4[8:1],,8/1-5[8:1],,2-4[8:1]/1,,2/4,,5,6,,7-2[8:1],4-1[8:1],7,4,,6,,8-6[8:1],1-5[8:1],8-4[8:1],1-3[8:1],8,1,,
{8}8bv5[8:1]/2bv5[8:1],,8/2,,1-3[8:1],7,1,7,2-4[8:1],8,2,8,3-5[8:1],1,3,1,4-2[8:1],6,4,6,5-2[8:1],7,5,7,6-2[8:1],8,6,8,1-5[8:1],7,1,,1p4[8:1]/7q4[8:1],,1/7,,7-5[8:1],1,7,1,6-4[8:1],8,6,8,5-3[8:1],7,5,7,5<7[8:1],4,5,4,5-8[8:1],3,5,3,5-1[8:1],2,5,2,
{16}8,7,6,5,4,3,2,1,
{1}8b<8[1:2],,8>8[1:2],,
{8}1,,,,,2h[8:7],,8,8,,,,4h[2:1],,,,8h[8:5],,,,,6h[8:3],,4,4,,,,8,,,,
{8}1-3[8:1]/8,,1/8,7,1-4[8:1],6,1,5,1-5[8:1]/6,,1/6,7,1-4[8:1],8,1,7,1>3[8:1]/6,,1/7,8,1-5[8:1],8,1,7,1-4[8:1]/6,,1/7,8,1-3[8:1],8,1/7,,7-5[8:1]/2,,7/3,2,7-4[8:1],2,7,2,7-1[8:1]/1,,7/3,4,7-2[8:1],4,7,4,7-4[8:1]/5,,7/2,,7-2[8:1]/3,,7/4,,
{16}4,5,4,5,3,5,3,5,3,6,3,6,2,6,2,6,7b,2,6,3,5,4,6,,4,5,4,5,3,6,2,7,1,8,1,7,1,6,1,5,1,5,2,5,3,5,4,5,3,2,1,8,4,3,2,1,8,,,7/1,,,6/2,,4,5,3,5,4,5,3,5,4,5,2,5,4,5,2,4,5,6,7,8,5,6,7,8,1,,,2/8,,,3/7,,4,5,4,,6,,7,,8,1,8,1,7,2,7,2,5,3,4,3,6,3,5,3,7,3,6,3,8,3,7,3,1,2,8,3,7,4,6,5,7,4,6,3,5,2,4,1,
{8}5p6[4:1],,,,,2<8[8:1],8<6[8:1],6>2[4:1],,,,1,,8,1/7,2/6,3p4[4:1],,,,,7-1[8:1],1-3[8:1],3V57[4:1],,,,4,,4/8,3/7,2/6,1/8,7,6,4/5,3,2,1,8/7,6,5,4,1/2,3,4,5,,8/1,7,6,4/5,3,
2/1,3/8,7/4,8-4[8:1],,8/1,1-5[8:1],,8/1,7,3/6,
{1}4b>5[4:13]/5b<4[4:13],,,,
{8}3/4,,,7q4[5:1]/8s4[5:1],7/8,,,,6/5,,,2p5[5:1]/1z5[5:1],2/1,,,,3/6,,,1p4[5:1]/8q5[5:1],1/8,,,,3/7,,3/7,,3/7,,3q3[4:19]/7q7[4:19],,
{1},,,,,
{16}4,5,4,5,4,5,4,5,4,5,4,5,3/6,,,,1,2,3,4,1-5[8:1],2,3,4,5/1,,,,1,,,,1,,3,,1,,2,2,1,,,3,1,,3,,1,8,7,6,1-5[8:1],2,3,4,5/1,,,,1,,3,2,1,8,7,6,1,2,3,4,1,8,7,6,1,8,7,6,1,8,2,7,1,8,2,7,1,8,3,6,1,8,3,6,1,8,2,7,1,8,3,6,1,8,2,7,1,8,3,6,1/8,,2,,3,,4/5,,6,,7/8,,3,,1/2,,8-4[8:1],,7,,1-5[8:1]/8,,2,,1,,,6,6,,7,,1,2,3,2,3,4,1,2,8,7,6,7,6,5,8,7,3,2,1,3,2,1,4,3,6,7,8,6,7,8,5,6,1,2,3,4,2,3,4,5,3,4,5,6,4,5,6,7,4,3,2,1,3,2,1,8,2,3,4,5,1,8,7,6,5/4,,6,,7,,8/1,,2,,3/4,,7,,6/5,,8,,1/2,,3,,4/5,,6/2,,7/3,,8/4,,1/5,,3/7,,3,4,2,,6,5,7,,2,1,3,,6,,1,5,2,6,3,7,4,8,3,7,2,6,1,5,8,4,1/5,,1/5,,2/6,,2/6,,3/7,,3/7,,4/8,,4/8,,
{48}8h[48:10],,,,,,1,2,3,4,5,,,,,,,,8,7,6,5,4,,
{16},,4,5,3,6,2,7,3,5,2,,1/6,,8/1,,6,4,7,,3/8,,8/1,,
{16}1,2,3,4,5/1,6,7,8,1/5,6,7,8,5/1,2,3,4,
{1}1bp7[4:11]/5bp3[4:11],,,,E
