&title=Hyper
&artist=Kori
&first=0
&des=阿抹AIMO
&lv_5=12+
&inote_5=(130)
{1},
(65)
{4}1b<6[8:1],8h[4:1],{8}6,7q5[8:1],4,3h[4:1],
{8},4z8[4:1],4,3,3,2pp4[8:1],8,7-2[8:1],
{8},,4h[8:1],6h[8:1],8-4[8:1],3h[256:1],5h[4:1],,
{8}3h[4:1],,1h[8:1],7h[8:1],5-1[8:1],2h[256:1],8h[8:1],,
(130)
{8}2b/7b,,7,86,{16}5,3,,3,4-8[16:1],,,,
{16}1,1h[16:3],,,7,,86,,5,3,,3,4-7[16:1],,,,
{16}1,1h[16:3],,,7,,86,,5,3,,3,4-6[16:1],,,,
{8}8bq3[4:1],,,7bqq4[4:1],,3,1,2,
{16}3,3h[8:1],,8,1h[8:1],,7,,6,5,,3,4-8[16:1],,2,,
{16}1,1h[8:1],,8,1h[8:1],,7,,6,5,,3,4-7[16:1],,2,,
{16}1,1h[8:1],,8,1h[8:1],,7,,6,5,,3,4-6[16:1],,2,,
{8}1bq4[4:1],,8,8bqq5[4:1],,,{16}1,1,1,1,
{8}1<6[8:1]*>4[8:1],,1b,,{16}5,3,4,5,3-7[16:1],4,5,,
{16}6,6h[8:1],,8,17,,2h[8:1],,5,3,4,5,3-8[16:1],4,5,,
{16}6,6h[8:1],,8,17,,2h[8:1],,5,3,4,5,3-1[16:1],4,5,,
{16}8-4[16:1],8,8,,18,,2-5[16:1],2,3,3,2,,8,8,8,8,
{16}1b<6[8:1]/7,,8,,2,2h[16:3],,,1>4[8:1],,2,,8,8h[16:3],,,
{16}1<6[8:1],,8,,2,2h[16:3],,,1h[8:1],,5,5,6,6,7,7,
{16}8b>3[8:1],,1,,7,7h[8:1],,,8<5[8:1]/7,,7,,1,1h[8:1],,,
{16}1/8>3[8:1],,1,,7,7h[8:1],,,{32}78,6,5,4,3,2,1,8,7,6,5,4,3,2,1,8,
{1}7b-3[4:2]/3b,
{1}7-4[4:2],
{1}7-5[4:2],
{12}7,6,5,3,2,1,8,17,26,{4}3b-8[8:1]/5bv6[8:1],
{8},,7,68,{16}1,12,,3,4-8[8:1]/5-7[8:1],,,,
{8}45,,7,68,{16}1,12,,3,4-1[8:1]/5-8[8:1],,,,
{8}45,,7,68,{16}1,12,,3,4-2[8:1]/5-1[8:1],,,,
{8}4b/5bp4[8:2],,3,2bq7[4:1],,,{16}1,1,1,1,
{4}1b-5[32:22]/5,,1-5[12:1]*-5[12:1],1,
{8}2bpp2[4:1]/8b,,,{16}7,7,,6,6,,6,5,7,6b/4b,
{16},3b/5b,,4b/8bqq8[4:1],,,2,2,,1,1,,2,1,3,2b/8b,
{16},1b/7b,,2bpp2[4:1]/6b,,,8,8,,7,7,,7,1,8,
{32}2b/7b,6,5,4,3,2,1,8,7,6,5,4,3,2,1,8,7,6,5b/2b,3,4,5,6,7,8,1,2b/6b,3,4,5,6,7,8,1,
{8}7bqq7[4:1]/2b,,,{16}2,2,,3,3,,3,4,2,3b/5b,
{16},6b/4b,,5b/1bpp1[4:1],,,7,7,,8,8,,7,8,6,7b/1b,
{16},8b/2b,,7bqq7[4:1]/3b,,,1,1,,2,2,,2,8,1,
{32}7b/2b,3,4,5,6,7,8,1,2,3,4,5,6,7,8,1,2,3,4b/7b,6,5,4,3,2,1,8,7b,6,5,4,3,2,1,8,
{8}7bp3[8:1]/2b,,2q6[8:1],,1v4[8:1],,8v5[8:1],,
{8}7p3[8:1],,8q4[8:1],,1p5[8:1],,2q7[4:1],2h[8:3],
{8},,,{16}8,1,6,5,7-4[8:1],4,,4,7,,
{16}3,7,1,6,2,8,4,6,2,5,3,7,4,4,6,6,
{2}5bqq2[2:1],7qq4[2:1],
{2}1qq6[2:1],{8}3qq8[2:1],,,1b,
{8},1,1,1,28,37,46,5,
{16}3b<7[16:1]/7b>3[16:1],3b/7b,
{1},,E
