&title=Smooth Wind
&artist=とろまる
&first=0
&des=好想成为人类
&des_5=
&lv_5=14
&inote_5=(152){4},,,,{8}3/5,
4,{16}2-5[8:1],1,,4,{8},7,{16}6,5,{8}6,
{16}7/4,{8},{16}3/5,{8},6<1[8:1]/8-5[8:1],{4},,{16}5/6,
5,,7-4[8:1],{8},8,,{16}3,5,,5,{8}4,
{16}3/5,{8},{16}4/7,{8},8v6[8:1]/1v3[8:1],{4},,
{8}3/5,3/5,{16}2,4,,4h[16:3],{8},{16}3,4,2,5,{16}1,6,
{16}8,7,8,7,1/6,,5,,{16}4/3>8[8:1],,7,6,5b,,,,
{16}7,5,,5,,5,{8}6h[8:1],{16}4,5,3,4,,4,{8}2,
{16}8,1,8,1,{24}7,6,5,2,3,4,{8}6V84[16:4]/5,3,{16},1b,{8},
{16}2h[16:3],
{8},{16}4,{8}3,4/5,6-8[8:1],,{4}5h[4:1],
{16}7h[16:3],
{8},{16}5,{8}6,5/4,3>8[8:1],3,{4}4h[4:1],
{16}1>4[8:1],{8},{16}5,{8}1,6,{16}7<4[8:1],{8},{16}3,{8}7,2,
{4}1-5[8:1],1/4qq5[16:5],{16}4/6,,,7,,,8,,
{16}7-4[8:1],5,7,5,{8}7,3,{16}2,4,,4,1,5,2,6,
{8}3h[8:1],{16}4,3,,2,3,4,{8}5,{16}7,8,,8,{8}6,
{16}2-5[8:1],4,2,4,{8}2,6,{16}7,5,,5,8,4,7,3,
{8}6h[8:1],{16}3,3,5,5,4,4,{4}6h[8:3],{32}8,1,2,3,4,,,,
{16}7-5[8:1],,,{16}4,{8}7,3,{16}2>5[8:1],4,,4,{8}2,6,
{16}7,5,{8}7h[8:3],3,2,1h[4:1],{24}8,7,6,{8}5,1,
{8}2/6,2/6,3,{16}3,4,,4,{8}5,6,7,
{4}8<5[4:1],5>2[4:1],2<7[4:1],7,
{16}2-4[8:1],,,{16}5,{8}2,6,{16}7<4[8:1],5,,5,{8}7,3,
{16}2,5,{8}2h[8:3],6,7,8<5[16:1],{24}1,2,3,{8}4b,,
{8}4/6,4/6,3,{16}3,2,,2,{8}1,8,7,
{4}6-1[8:1]*-3[8:1],6,{24}8,7,6,4,3,2,{4}8b/1b,
{16}7<4[8:1],3,7,{16}3,{8}7,2,{16}1>4[8:1],6,1,6,{8}1,7,
{16}8<5[8:1],4,{8}8,3,2,1h[4:1],{24}5,6,7,{8}8,1,
{8}2/8,2/8,7,{16}7,6,,6,{8}5h[8:1],4h[8:1],3h[8:1],
{4}2>6[4:1],6<2[4:1],7h[2:1],,
{16}2>5[8:1],6,2,{16}6,{8}2,7,{16}8<5[8:1],3,8,3,{8}8,2,
{16}1>4[8:1],5,{8}1,6,7,8<5[16:1],{24}3,2,1,{8}8b,,
{8}6/4,6/4,3,{16}3,2,,2,1,8,1,7,2,7,
{4}3b>8[8:1],{24}7,6,5,4,3,2,{4}1w5[8:1],1,
{8}7b/2b,{16}3,4,{8}2,8,1/7-4[8:1],{16}6,5,{8}7,1,
5/2,3/6,4/7,{24}8,5,8,{16}5>2[8:1],1,{8}1v6[8:1],5,1,
,{16}2,2,4,3,{16}3,5,{16}4-1[8:1],4,{8}8v5[8:1],
4,8,
2,2,{16}4,3,{8}5,6/4-8[8:1],{16}3,3,{8}4,2,
{16}1bpp3[12:1],{8},{16}1bqq7[12:1],{8},1bs5[4:1],{2}2b,
{16}4bv1[12:1],{8},{16}4bv7[12:1],{8},4b,,2,{16}7,3,6,3,
{8}5-7[8:1],2,5/3,2,{16}5<8[8:1],1,,1,{8}5,2,
{4}1/3b-7[8:1],3/4h[4:1],{24}1,5,1,5,1,5,{4}1b,
{8}7-4[8:1]/4,{16}6,5,{8}7,2,3-8[8:1]/5,{16}4,5,{8}3,6,
4/7,6/3,5/2,{24}1,4,1,{16}4v7[8:1],8,{8}8-3[8:1],4,8,
,{16}7,7,5,6,{16}6,4,{16}5<8[8:1],5,{8}1v4[8:1],
5,1,
7,7,{16}5,6,{8}4,3/5-1[8:1],{16}6,6,{8}5,7,
{16}8bqq6[12:1],{8},{16}8bpp2[12:1],{8},8bz4[4:1],{2}7b,
{16}5bv8[12:1],{8},{16}5bv2[12:1],{8},5b,,7,{16}2,6,3,6,
{8}4-2[8:1],7,4/8,7,{16}4>1[8:1],6,,6,{8}4,5,
{4}4b<7[8:1]/8b>3[8:1],8bp4[8:1]/4bp8[8:1],{8}8b/4b,,1b/5b,,
{16}3,3h[16:3],{8},4-1[8:1],{16}5,5,{8}4,{32}5h[324:1],,{16},,{32}6h,,{16},,7,
7h[16:3],{8},5<8[8:1],{16}4,4,{8}5,{32}3h,,{16},,{32}2h,,{16},,1,
1h[16:3],{8},4-8[8:1],{16}5,5,{8}4,{32}6h,,{16},,{32}7h,,{16},,8-4[12:1],
{8},{16}8/2-5[12:1],{8},2,{16}6,6,5,7,3,3,4,2,
{8}8b,{16}3,4,{8}2,7h/3h,{16},6,5,7,,2,4,3,
5,1,,2h/6h,,3,5,4,{8}7,1/6,{16}5/4,4/5,,2h/7h,
,,{256}3,4,{16},,{64},,,{128},{256}6,5,{16},,{64},,,{128},{256}2,1,{16},{64},,,{128},{256}8,7,{16},,{64},,,{128},{16}6/1,{8}1/6,
,{16}5,4,6,3,4,2,6,5,7,8/1,{8},5/6,
8/4,{16}6,5,6,7,,1/8,,2/5,,3,4,3,2,3,
8,1,,2/7,,1/4,,5/2,{8}5/2,{16}3/6,3/6,,2,5,4,
7,5,6,3,4,4,5,3,6,5,8,2,6,4,4,2,
{24}8,7,6,5,4,3,7/2,6,5,4,3,2,{8}1/6,{16}5/3,3b/5b,,1/7,{8}7b/1b,
8/3,2/7,{16}1,6,,2/5,{8},3/6,{16}7,4,{16}6,3,
{16}5pp7[32:3],{8},{16}5bqq3[32:3],{8},5b,,1,{4}8/2,
{16}7,4,,6/3,{8},{16}2,5,3,6,4,7,3,6,{16}2,5,
{16}1pp3[32:3],{8},{16}1bqq7[32:3],{8},1b,{16},1,{8},{4}4/6,
{8}4/3-8[8:1],1,{16}3,4,,7,{8},{16}6,5,6,7,{8}6,
{16}4,5,3,4h[16:3],{8},1,5qq3[8:1]*pp7[8:1],{24}8/2,3/7,4/6,{4}5b,
{16}3,8,2,7,1,6,{8}6h[8:1],{16}4,7,3,6,2,5,{8}5h[8:1],
{16}3,4,2,4,1,4,8,4,7,4,6b-3[12:1],,{16},6b/7b,{8},
{16}7<3[2:1],
{8},{16},{8}8,,,,{4}1,
{16}2>6[2:1],{8},{16},{8}1,,,,{4}8,
{16}7h[8:3]/8,{8},{16}6,{8},5,{16}4/3h[8:3],{8},{16}2,{8},1,
{4}8b-5[8:1]/4bv1[8:1],8b/4b,{8}2b/6b,{32}1<6[8:1],2,3,4,,,,,1b,,,,,,,,
{16}7-4[16:1]/3-8[16:1],7h[8:1]/3h[8:1],
