&title=SON OF SUN
&artist=細江慎治
&first=-0.14
&des=KIYO OF KAZE
&lv_5=14
&des_5=KIYO OF KAZE
&inote_5=
(200){4},,{2}2bV46V82[4:13]/1bV35V71[4:11],
{1},,,{4},,{8}3/6,
{16}4,5,{8}4,4/5,
3/6,2/7,{4}8/1h[4:5],2,{8}2>5[8:1],2,
,,,,{4}6h[1:1],{8}7>2[8:1],7,
,,,,{4}3h[4:3],{8}4<7[8:1],4,
,,,,7/2,{16}8,1,{8}8,8/1,
2/7,3/6,{4}4/5h[4:5],6,{8}6-2[8:1],6,
,,,,{4}1h[1:1],{8}2-6[8:1],2,
,,,,{4}7s3[4:1],3s7[4:1],
{2}1w5[8:1],{8}2-4[8:1],1,7-3[8:1],8,
5-2[8:1],5,,,{2}6-3[8:1]/1V72[8:1],
1V38[8:1]/4<7[8:1],{8}6-8[8:1],5,3-7[8:1],4,
1-6[8:1],1,,,{2}2-7[8:1]/5V36[8:1],
5V74[8:1]/8>3[8:1],{8}8<5[8:1],7,2q6[8:1],3,
4<7[8:1],4,,,{2}8V27[8:1]/3<6[8:1],
8V61[8:1]/5-2[8:1],{8}4>1[8:1],3,6q2[8:1],7,
8>3[8:1],8,,,{4}4z8[4:1],8z4[4:1],
{2}2-6[8:1],{8}5-2[8:1],1>4[8:1],5,1,
5-2[8:1],1>4[8:1],5,1,6h[8:1],2,7h[8:1],3,
6h[8:1],4,{4}7h[8:1],{8}1-6[8:1],5<8[8:1],1,5,
1-6[8:1],5<8[8:1],1,5,2h[8:1],6,2h[8:1],6,
5/3h[8:1],7,5/3h[8:1],7,4-7[8:1],8<5[8:1],4,8,
4-1[8:1],8>3[8:1],4,8,4h[8:1],5,3h[8:1],6,
4h[8:1],5,{4}3h[8:1],{8}8-3[8:1],4>1[8:1],8,4,
8-5[8:1],4<7[8:1],8,4,8h[8:1],1,2/8h[8:1],1,
3/7h[8:1],5,{4}6/4h[4:1],{8}7>2[8:1],8,7<4[8:1],6,
{2}7q4[8:1],{8}2<7[8:1],1,2>5[8:1],3,
{2}2p5[8:1],{8}7>2[8:1],8,7<4[8:1],6,
{2}7q4[8:1],{8}2/7,{16}1,8,{8}1,1/8,
2/7,3/6,{4}4/5,{8}3<6[8:1],4,7>2[8:1],8,
{2}3q8[8:1],{8}6>3[8:1],5,2<7[8:1],1,
{2}6p1[8:1],{8}3<6[8:1],4,7>2[8:1],8,
{2}3q8[8:1],{8}3/6,{16}4,5,{8}4,4/5,
3/6,2/7,{4}1/8h[8:9],{2}2,
{8},,,3,{2}4/7h[8:7],
{8},,,4,{2}5/6h[8:7],
{8},,,5,4/6h[8:1],2,4/6h[8:1],2,
4/7h[8:1],2,4/7h[8:1],2,{2}8/1h[8:7],
{8},,,6,{2}5/2h[8:7],
{8},,,5,{2}4/3h[8:7],
{8},,,4,5/3h[8:1],7,5/3h[8:1],7,
5/2h[8:1],7,5/2h[8:1],7,{4}1/8<5[8:1],{8}4/8-4[8:1],4,
3/8-3[8:1],2,8/2,1>4[8:1],,5/1-5[8:1],5,6/1-6[8:1],
7,1/7,{4}8,8/1>4[8:1],5/1-5[8:1],
{8}6/1-6[8:1],7,1/7,8<5[8:1],,4/8-4[8:1],4,3/8-3[8:1],
2,8/2,{4}1,4/5<8[8:1],{8}1/5-1[8:1],1,
2/5-2[8:1],3,5/3,4>1[8:1],,8/4-8[8:1],8,7/4-7[8:1],
6,4/6,{4}5,5-8[8:1]/4-1[8:1],4/5,
{8},,,,,,,,8<5[8:1]/1>4[8:1],
2/7,{4}1/8,{2}8b/2h[4:5],
1h[4:1],4h[2:1],
{8}5h[4:1],,,5,{4}4b/6h[4:5],5,
{2}7h[4:1],1h[4:3],
2h[4:1],7b/3h[4:5],
1h[4:1],2h[4:3],
{8}6h[8:3],,,2,{4}4b/8h[8:7],3,
{2}7h[4:1],{16}1,8,1,8,1,8,1,8,
1,8,1,8,1,8,1,8,{8}1-6[8:1],7,1,2,
5-8[8:1],7,5,4,1-4[8:1],4,1-5[8:1],5,
1-6[8:1],7,{4}1,{8}8-3[8:1],2,8,7,
4-1[8:1],2,4,5,8-5[8:1],6,8-4[8:1],4,
8-3[8:1],2,{4}8,{8}4-7[8:1],6,4,1,
8-5[8:1],6,8,1,4>1[8:1],2,4<7[8:1],6,
4-8[8:1],8,{4}4,{8}5-2[8:1],3,5,8,
1-4[8:1],3,1,8,{16}1,8,1,8,1,8,1,8,
1,8,1,8,1,8,1,8,{6}3/7h[4:1],{12}4,5,,5,
{4}4/6,6h[4:1]/4h[4:1],,6-1[8:1]/5-2[8:1],
{2}5/6,{6}6/2h[4:1],{12}5,4,,4,
{4}5/3,3qq8[2:1]/5pp8[2:1],{2}3/5,
{6},,,2/6h[4:1],{12}3,4,,4,
{4}3/5,5h[4:1]/3h[4:1],,5-8[8:1]/4-1[8:1],
{2}4/5,{16}1,8,1,8,1,8,1,8,
1,8,1,8,1,8,1,8,{4}2b/7,{8}5/4,6b/3,
,8/1,{4}7/2b,{8}3,1-6[8:1],2,5p8[8:1],
4,1>4[8:1],2,7-2[8:1],8,6-1[8:1],6,8<5[8:1],
7,2,{4}1b,{8}4,3-6[8:1],2,7-2[8:1],
8,4q1[8:1],3,8<5[8:1],7,3,4b,3>8[8:1],
2,5,{4}6b,{8}3,8-3[8:1],7,4q1[8:1],
5,8<5[8:1],7,2-7[8:1],1,3-8[8:1],3,1>4[8:1],
2,7,{4}8b,{8}5,6-3[8:1],7,2-7[8:1],
1,5p8[8:1],6,3,2b,{16}1,1,{8}1,1/8,
2/7,3/6,{4}4b/5b,
E
