&title=Alicemagic(Tsukasa Remix)
&artist=Rita/Tsukasa
&first=0
&des=Sumide
&lv_5=13+
&inote_5=(166){4},,,,{1}7b-4[2:1]/3b-8[2:1],
{8}1b/6b-3[8:1],2,{4}3,{8}2-7[8:1],5,,6,
5-8[8:1],4,3,2,1-4[8:1],8,7,6,
5-3[8:1],3-7[8:1],,,1-6[8:1],6-4[8:1],,,7,
3,8,{24}2,3,4,{8}5/6h[4:1],5,{16},,7,7,
{8}2b-5[8:1],8,{4}2,{8}6-4[8:1],4-7[8:1],{4}6,
{8},3,2,1,8,7,6/5,4/7h[8:5],
3,3,3,3,2,2,1qq5[2:1],8/2h[8:5],
{16},,,,,,,,,,2,3,4,5,6,7,
{4}8-4[8:1],1,{8}2,3h[4:1],,5h[4:1],
,4,{4}4<8[4:1],{2}8-5[8:1]*-3[8:1],
{4},8,{8}7,6h[4:1],,4h[4:1],
,5,{4}5>1[4:1],1<5[4:1],5pp1[8:3],
4,{8}3,3h[8:3],,,,8,
2h[4:1],,,7h[4:1],,,{4}6,
4qq4[4:1]*pp4[4:1],4<4[4:5],,3,
4,5,6,7,
8b,{8}3p7[4:1],3,7q4[4:1],7,,6h[8:1],
,6,{4}5<1[4:1],{2}1-4[8:1]*-6[8:1],
{4},1,{8}2,3h[4:1],,5h[4:1],
,4,{4}4<8[4:1],8>4[4:1],4p7[4:1],
5,{8}6,6h[8:3],8,1,,2,
3-1[8:1],7,{4}7/3q8[4:1],8q5[4:1],5,
6b-3[8:1],{8}6,1b-4[8:1],,1/5,{16},,6,6,
{4}2q7[4:1],7<3[4:1],{8}8,8,{16},,6,6,
{4}1-5[8:1],1,8-6[8:1],8,
2q6[8:1],{8}2,7h[4:1],,5,4/7,3,
{4}2h[4:3]/7-5[8:1],7,4-8[8:1],{8}4,2,
{4}1>4[8:1],{8}1,7h[8:1],,6h[4:1],,5,
{4}4qq1[2:1],4,5h[8:1],6h[8:1],
2-5[8:1],2,8-5[8:1],8>5[8:3],
{8}8,7,{4}7,{16}6h[8:1],,,4h[8:1],,,{8}5,
3,2,2,{16}6,6,4b,3,2,1,8,7,6,5,
{8}4bpp2[2:1],,,,,,,8,
{4}8h[4:1],{8}1,2h[8:1],,7/3,{4}6/4,
{1}5bqq7[2:1],
{4}1-3[8:1],{8}1,5-7[8:1],,5-1[8:1],4,5b,
,6h[8:1],,7h[8:1],,8h[8:1],,1,
2,2,3,3,5,5,4,4,
6b-1[8:1],3,{4}6,{8}2b-5[8:1],7,{4}2,
{8}8bp3[4:1],8,3b<7[4:1],3,2b,2,1b,8,
{4}8-5[8:1],8b,{16}3,4,2,5,1,6,8,7,
{8}1b-5[8:1],7-3[8:1],1-3[8:1],7,{4}1,{8}6/4,4h[8:1]/6h[8:1],
,7/3,2/6-1[8:1],5/1-5[8:1],,,3,2bv5[8:1],
,2,7-4[8:1],4-8[8:1],{4}7,{8}3b,6h[8:1]/2h[8:1],
,5h[8:1]/1h[8:1],,4h[4:1]/8>3[8:1],,,5,6bv1[8:1],
,6,3-8[8:1],8-4[8:1],{4}3,{8}7,6h[4:1],
,3,{4}4h[4:1],5-1[8:1],5/3-1[8:1],
{2}3b-7[8:1]/7b-3[8:1],6b-2[8:1]/2b-6[8:1],
8b-4[8:1]/4b-8[8:1],{16}2,1,3,8,4,7,5,6,
{8}4b-8[8:1],6-2[8:1],4-2[8:1],6,{4}4,{8}7/1,1h[8:1]/7h[8:1],
,6/2,3/7-4[8:1],8/4-8[8:1],,,2,3bv8[8:1],
,3,6-1[8:1],1-5[8:1],{4}6,{8}2b,7h[8:1]/3h[8:1],
,4/8,1/5>2[8:1],5/1h[4:1],,,8,7bqq4[8:3],
,,,,{4}3qq8[2:1],{8}3b,5h[8:3],
,,,,{4}6-1[8:1],{8}6,2h[8:5],
8,8,7,7,6b,6/2,5/3,4h[4:1],
{16}5b,6,7,8,4,3,2,1,8,7,6,5,4,3,2,1,
{1}8qq4[2:1]*>4[2:1],
{8}5b/2b-7[8:1],6,{4}7,{8}6-3[8:1],1,,2,
1-4[8:1],8,7,6,5-8[8:1],4,3,2,
1-6[8:1],1-4[8:1],{4}1,{8}5-2[8:1],5-8[8:1],{4}5,
{8}4,3,2,1,8,7,6-3[8:1],{16}2,2,
{8}6-8[8:1],1,{4}6,{8}2-7[8:1],2-4[8:1],,,6,
6,3,3,5-3[8:1],5-8[8:1],,,1,
1,2/7,2/7,6/3,3/6-3[8:1],5/4,6/3b,
,2,1,8,{16}7,7,4,4,{8}6,6,
{4}5-1[8:1],5/3,4-8[8:1],4/6,
7-3[8:1],7/1,2-6[8:1],2/8,
7V51[4:1],7/4,2V48[4:1],2/5,
6V84[4:1],6/1,{16}3V15[4:1],3,,,{4}3/8,
6-2[8:1],6/4,3-7[8:1],3/5,
8-4[8:1],8/2,1-5[8:1],{8}1/7,7,
6-4[8:1],4-7[8:1],{4}3/6,{8}2-8[8:1],8-3[8:1],2/7,6,
5,4,5/3,{24}6,7,8,{16}1h[4:1]/2-5[8:1],3,,,{8}2,8,
{1}7b/3b,
E
