&title=Funkytown
&artist=Lipps Inc.
&first=0
&des=Nanamor1
&lv_7=回
&inote_7=(122.84)
{1},
{16}4,5,6,7,8,1,2,3,4,5,6,7,8,1,2,3,
4,5,6,7,8,1,2,3,4,5,6,7,8,1,2,3,
{24}4,5,6,7,8,1,2/C,3,4,5,6,7,
8,1,2,3,4,5,6/C,7,8,1,2,3,
4,5,6,7,8,1,2/C,3,4,5,6,7,
8,1,2,3,4,5,6/C,7,8,1,2,3,
4,5,6,7,8,1,2/C,3,4,5,6,7,
8,1,2,3,4,5,6/C,7,8,1,2,3,
4,5,6,7,8,1,2/C,3,4,5,6,7,
8,1,2,3,4,5,6/C,7,8,1,2,3,
{4}4<4[4:1]*<4[4:1],,5<5[4:1]*<5[4:1],,
6<6[4:1]*<6[4:1],,7>7[4:1]*>7[4:1],,
{24}3,4,5,6,7,8,1/C,2,3,4,5,6,
7,8,1,2,3,4,5/C,6,7,8,1,2,
3,4,5,6,7,8,1/C,2,3,4,5,6,
7,8,1,2,3,4,5/C,6,7,8,1,2,
{4}3<3[4:1]*<3[4:1],,4<4[4:1]*<4[4:1],,
5<5[4:1]*<5[4:1],,6<6[4:1]*<6[4:1],,
{24}2,3,4,5,6,7,8/C,1,2,3,4,5,
6,7,8,1,2,3,4/C,5,6,7,8,1,
2,3,4,5,6,7,8/C,1,2,3,4,5,
6,7,8,1,2,3,4/C,5,6,7,8,1,
{32}6x/E6,5x/E5,4x/E4,3x/E3,2x/E2,1x/E1,8x/E8,7x/E7,6x/E6/Cf,5x/E5,4x/E4,3x/E3,2x/E2,1x/E1,8x/E8,7x/E7,6x/E6,5x/E5,4x/E4,3x/E3,2x/E2,1x/E1,8x/E8,7x/E7,6x/E6/Cf,5x/E5,4x/E4,3x/E3,2x/E2,1x/E1,8x/E8,7x/E7,
6x/E6,5x/E5,4x/E4,3x/E3,2x/E2,1x/E1,8x/E8,7x/E7,6x/E6/Cf,5x/E5,4x/E4,3x/E3,2x/E2,1x/E1,8x/E8,7x/E7,6x/E6,5x/E5,4x/E4,3x/E3,2x/E2,1x/E1,8x/E8,7x/E7,6x/E6/Cf,5x/E5,4x/E4,3x/E3,2x/E2,1x/E1,8x/E8,7x/E7,
6,5,4,3,2,1,8,7,6,5,4,3,2,1,8,7,6,5,4,3,2,1,8,7,6,5,4,3,2,1,8,7,
6,5,4,3,2,1,8,7,6,5,4,3,2,1,8,7,6,5,4,3,2,1,8,7,6,5,4,3,2,1,8,7,
{32}6bx/E6,5bx/E5,4bx/E4,3bx/E3,2bx/E2,1bx/E1,8bx/E8,7bx/E7,6bx/E6/Cf,5bx/E5,4bx/E4,3bx/E3,2bx/E2,1bx/E1,8bx/E8,7bx/E7,6bx/E6,5bx/E5,4bx/E4,3bx/E3,2bx/E2,1bx/E1,8bx/E8,7bx/E7,6bx/E6/Cf,5bx/E5,4bx/E4,3bx/E3,2bx/E2,1bx/E1,8bx/E8,7bx/E7,
6bx/E6,5bx/E5,4bx/E4,3bx/E3,2bx/E2,1bx/E1,8bx/E8,7bx/E7,6bx/E6/Cf,5bx/E5,4bx/E4,3bx/E3,2bx/E2,1bx/E1,8bx/E8,7bx/E7,6bx/E6,5bx/E5,4bx/E4,3bx/E3,2bx/E2,1bx/E1,8bx/E8,7bx/E7,6bx/E6/Cf,5bx/E5,4bx/E4,3bx/E3,2bx/E2,1bx/E1,8bx/E8,7bx/E7,
{24}6,5,4,3,2,1,8/E4,7,6,5,4,3,
2/E6,1,8,7,6,5,4/E8,3,2,1,8,7,
6/E2,5,4,3,2,1,8/E4,7,6,5,4,3,
2/E6,1,8,7,6,5,4/E8,3,2,1,8,7,
{32}6b>7[4:1]*>7b[4:1]/Chf[4:1],,,,,,,,{48}E6/D6,A5,E5/D5,A4,E4/D4,A3,E3/D3,A2,E2/D2,A1,E1/D1,A8,{4}E8/D8,{24}6,5,4,3,2,1,
8/E4,7,6,5,4,3,2/E6,1,8,7,6,5,4/E8,3,2,1,8,7,6/E2,5,4,3,2,1,
{32}8b<1[4:1]*<1b[4:1]/Chf[4:1],,,,,,,,{48}E8/D8,A7,E7/D7,A6,E6/D6,A5,E5/D5,A4,E4/D4,A3,E3/D3,A2,{4}E2/D2,{24}8,7,6,5,4,3,
2/E6,1,8,7,6,5,4/E8,3,2,1,8,7,6/E2,5,4,3,2,1,8/E4,7,6,5,4,3,
{32}2b<3[4:1]*<3b[4:1]/Chf[4:1],,,,,,,,{48}E2/D2,A1,E1/D1,A8,E8/D8,A7,E7/D7,A6,E6/D6,A5,E5/D5,A4,{4}E4/D4,{24}2,1,8,7,6,5,
4/E8,3,2,1,8,7,6/E2,5,4,3,2,1,8/E4,7,6,5,4,3,2/E6,1,8,7,6,5,
{16}4,3,2,1,8,7,6,5,4,3,2,1,8,7,6,5,4,
