&title=不乱不破
&artist=HOYO-MiX; Reol
&first=0
&des=苦茶大师
&lv_5=13+
&inote_5=(110)
{4}
,,,,
{8}
,,C,,,,,,
{8}
,,,,,,,,
{8}
1xq7q5q3q1[4:12],,,,,,,,
{8}
,,,,,,,,
{8}
,,,,,,,,
{8}
,,,,C,,8w4[12:1],,
{8}
8bv6z2v4s8b[4:7],,,,1h[96:1],,,,
{8}
1h[96:1],,,,1h[96:1],,,,
{8}
1>8[4:2],,,,8,,,,
{8}
1/3,2,5/7,6,{16}8w4b[12:1],8,8,8,{8},,
{8}
1-4[12:1]/2b,,1/2b-6[12:1],,{16}1-4[12:1]/2b,8,{8},1/2b,,
{16}
1h[8:1]/2,,6,,78,1h[16:1],4,,1h[8:1]/2,,6,,78,1h[16:1],4,,
{16}
2h[16:1]/6,,7,3,5h[16:1]/4,,2,,7h[16:1]/3,,2,6,4h[16:1]/5,,7,,
{16}
1,1,15,,3/6<1[8:1],,2>5[8:1],2,6V47-1[16:3],,2,,,,,,
{8}
2h[8:1],
{24}3,4,5,{8}3b-7[12:1]/6,2,5-8[12:1],6,{16}3<6[12:1],,2,2,
{8}
7-4[12:1],8,2-6[12:1],3,8-5[12:1],7,{16}2<7[12:1],,3,3,
{8}
{16}7,,5h[16:1],,1>4[12:1],1,8<5b[12:1],8,{8}1b-5[12:1],8b-3b[12:1],1b,8b,
{8}
4,12,81,78,67,56,4V28>1V75[4:2]/5,34,
{8}
1h[4:3],,,,,,,,
{16}
B5f,E3f,E6f,B1f,E7f,E4f,E5f,E1f,B7f,E2f,E8f,B3f,5w1[12:1],,E7/B6/E4/B4,,
{16}
,,,,{48}4/6,3x,2x,,,,,,,7,,,{16}3,6,6,,{48}4v1[12:1]*v7[12:1]/7,3x/6x,2x/5x,,,,{16},,
{16}
,,,,{48}5/3,6x,7x,,,,,,,2,,,{16}6,3,3,,{48}5v8[12:1]*v2[12:1]/2,6x/3x,7x/4x,,,,{16}5x,,
{16}
,,,,{48}4/6,3x,2x,,,,,,,7,,,{16}3,6,6,,{48}4>1V35[16:5]/7,3x/6x,2x/5x,,,,{16},,
{8}
7,8,6<1V75b[16:5],B8/B7,3,2,4w8b[12:1],4,
{16}
,,,,{48}2/6,3x,4x,,,,,,,7,,,{16}3,5,46,,{48}5v8[12:1]*v2[12:1]/2,6x/3x,7x/4x,,,,{16},,
{16}
,,,,{48}7/3,6x,5x,,,,,,,2,,,{16}6,4,53,,{48}4v1[12:1]*v7[12:1]/7,3x/6x,2x/5x,,,,{16}4x,,
{16}
,,,,{48}2/6,3x,4x,,,,,,,7,,,{16}3,5,46,,{48}5V73-1[4:1]/2,6x/3x,7x/4x,,,,{16},,
{8}
4,2,8p2b[8:1],,3q7b[12:1],,1-5b[12:1],,
{8}
8<8V24V68[4:5],,,,,,,,
{8}
Ch[2:1],,,,,,{32}E7,E6,E5,E4,E3,E2,E1,E8,
{8}
2b-6[12:1],,1-5[12:1],,8-4[12:1],,7-3[12:1],,
{8}
6-2[12:1],,5-1[12:1],,4,3,3h[8:1]/7h[8:1],,
{16}
2h[16:1]/6,,7,3,5h[16:1]/4,,2,,7h[16:1]/3,,2,6,4h[16:1]/5,,7,,
{16}
4,5,4,5,3,6,3,6,4p5[8:1],5v4[12:1],3,6,,,,,
{16}
1b,1,7,7,3,3,1,1-3[12:1],4,4-8[12:1],6,,,,,,
{16}
2,2,5,5,4,4,7,7-3[12:1],8,8-5[12:1],6,,,,,,
{16}
{48}1b,,,{16},,{48}7/3,4x,5x,{48},,,,,,1/8,7x,6x,,,,{48}2/5x-1[12:1],,,,,,73,4x,5x,,,,{16}7s3b[4:3],,,,
{8}
7b/C,,,,,,,,
{8}
1x>8V64<5V31[4:14],,,,,,,,
{8}
,,,,,,,,
{8}
,,,,,,,,
{8}
,,,,,,C,,
{8}
1/5h[8:1],1,2h[8:1]/6,6,3/7h[8:1],3,4h[8:1]/8,8,
{8}
1h[16:1]/2h[16:1],1h[16:1]/2h[16:1],3h[16:1]/4h[16:1],3h[16:1]/4h[16:1],5h[16:1]/6h[16:1],5h[16:1]/6h[16:1],7h[16:1]/8h[16:1],7h[16:1]/8h[16:1],
{16}
1,2,3,4,5,6,7,8,1h[32:1],2h[32:1],3h[32:1],4h[32:1],5h[32:1],6h[32:1],7h[32:1],8h[32:1],
{32}
E1,E2,E3,E4,E5,E6,E7,E8,A1,A2,A3,A4,A5,A6,A7,A8,1xw5[12:1],,,,,,,,,,,,,,,,
{32}
Cf/7b,6x,5x,4x,3x,2x,1x,8x,7x,6x,5x,4x,3x,2x,1x,8x,C/7x,6x,5x,4x,3x,2x,1x,8x,7x,6x,5x,4x,3x,2x,1x,8x,
{32}C/7x,6x,5x,4x,3x,2x,1x,8x,7x,6x,5x,4x,3x,2x,1x,8x,C/7x,6x,5x,4x,3x,2x,1x,8x,7x,6x,5x,4x,3x,2x,1x,8x,
{16}
C/7x,,,,2-8b[12:1],6,6-4[12:1],2V48b[16:3],,,,,,,7,,
{16}
28,,46,,7-5b[12:1],3,3-8b[12:1],7-3b[8:1],,,,,,,,,
{32}
Cf/2b,3x,4x,5x,6x,7x,8x,1x,2x,3x,4x,5x,6x,7x,8x,1x,C/2x,3x,4x,5x,6x,7x,8x,1x,2x,3x,4x,5x,6x,7x,8x,1x,
{32}
C/2x,3x,4x,5x,6x,7x,8x,1x,2x,3x,4x,5x,6x,7x,8x,1x,C/2x,3x,4x,5x,6x,7x,8x,1x,2x,3x,4x,5x,6x,7x,8x,1x,
{16}
C/2x,,,,2-4[12:1],7,7-3b[12:1],2V84b[16:3],,,,,,,6,,
{16}
28,,46,,7V51b[16:3],2,2V48b[16:3],7,,,,,,,,,
{16}
2,2,4,4,6,6,8,8,4h[32:1],4h[32:1],4h[32:1],4h[32:1],4w8b[12:1],,26,,
{16}
{96},Cf,,,,,{16},,,{48}2/5,3x/6x,4x/7x,,,,,,,2,,,{48}5,6x,7x,{16}3,3,,{48}5w1[12:1]/2,6x/3x,7x/4x,,,,{16},,
{16}
{96},Cf,,,,,{16},,,{48}7/4,6x/3x,5x/2x,,,,,,,7,,,{48}4,3x,2x,{16}6,6,,{48}4w8[12:1]/7,3x/6x,2x/5x,,,,{16}4x,,
{16}
{96},Cf,,,,,{16},,,{48}2/5,3x/6x,4x/7x,,,,,,,2,,,{48}5,6x,7x,{16}3,3,,{48}5V74-8[16:5]/2,6x/3x,7x/4x,,,,{16},,
{8}
2,1,3V14-8b[16:5],B1/B2,6,7,5w1b[12:1],5,
{16}
{96},Cf,,,,,{16},,,{48}7/4,6x/3x,5x/2x,,,,,,,8,,,{48}4,3x,2x,{16}6,6,,{48}4w8[12:1]/7,3x/6x,2x/5x,,,,{16}8x,,
{16}
{96},Cf,,,,,{16},,,{48}2/5,3x/6x,4x/7x,,,,,,,1,,,{48}5,6x,7x,{16}3,3,,{48}5w1[12:1]/2,6x/3x,7x/4x,,,,{48},,,2x/8x,3x/7x,4x/6x,
{16}
{96}5x,Cf,,,,,{16},,,{48}7/4,6x/3x,5x/2x,,,,,,,8,,,{48}4,3x,2x,{16}6,6,,{48}4V26-8[4:1]/7,3x/6x,2x/5x,,,,{16},,
{8}
5,7,1v7b[8:1],,6V42b[8:1],,8v5b[8:1]*v3b[8:1],,
{8}
,,,,,
