&title=I Swear
&artist=sweet ARMS
&first=0
&des=Himekawa Yoshino
&lv_5=13+
&inote_5=(168){1},
{8}2h[4:1],,4h[4:1],,3<6[8:5],,,,
{8},,,,7h[4:1],,5h[4:1],,
{8}6>3[8:5]
,,,,,,,,
{8}2h[4:1],,4h[4:1],,5V38[8:5],,,,
{8},,,,7h[4:1],,8,,
{8}16,,2h[4:1],,1,,8b/3b,,
{8}7,7h[8:1],5,5h[8:1],4,4h[8:1],2,2h[8:1],
{8}8,8h[8:1],1,1,2,2h[8:1],4,4h[8:1],
{8}5,5h[8:1],7,7h[8:1],1,1h[8:1],8,8,
{16}1,2,3,4,5,6,7,8,{16}1,2,3,4,5,6,7,8,
{8}1b<1[4:3],,,,,,,,
{8}7h[4:1],,8>5[2:1],,5,6,7,8,
{8}1b>1[8:6],,,,,,,{32}2,3,4,5,
{8}6>1[2:1],,1,8,7,6,5b,,
{8}3,4,3,42,3,4,15,,
{8}6,5,6,57,6,5,84,,
{8}25,4,3,51,3,4,86,{32}2,3,4,5,
{8}6,8,2q7[16:5],,8h[2:1],,,,
{8}6<5[2:3],,6,,5h[4:1],,,,
{8}6h[4:1],,,,7h[4:1],,,,
{8}1h[4:1]/3qq4[1:1],,,,7h[4:1],,,,
{8}6h[4:1],,,,5,5h[8:1],4,4h[8:1],
{8}3>4[2:3],,3,,4h[4:1],,,,
{8}3h[4:1],,,,2h[4:1],,,,
{8}8h[4:1]/6pp4[8:9],,,,2h[4:1],,,,
{8}3,3h[4:1],,,,1,18,,
{8}6h[4:1],,5>8[4:3],,7,7,,8,
{8}8>5[8:5],,6,6,,7h[4:1],,,
{8}6,6,5V38[4:3],,7,7,,8,
{8}8z4[8:5],,7,7,,6h[4:1],,,
{8}3,3,4<1[4:3],,2,2,,1,
{8}1<4[8:5],,3,3,,2h[4:1],,,
{8}3,3,4q1[4:2],,2,3,,3,
{8}4,,4,3,2,1,8,7qq5[4:1],
{8},1,2,3qq1[4:1],,5,6,7p3[4:1],
{8},3,2,1,,8,1,2pp4[4:1],
{8},8,7,6pp8[4:1],,4,3,2q6[4:1],
{8},6,7,8,,1,2,3<6[4:1],
{8},1,8,7>2[4:1],,5,4,3q7[4:1],
{8},7,8,1,,,3h[4:1],,
{8}5,5>2[4:1],,2<7[4:1],,7<4[4:1],,4>7[8:3],
{8},,,,3,4,5,6,
{8}2,5,4,7,1,6,3,8,
{8}37,26,15,4b/8b,,{32}1,2,3,4,5,6,7,8,1,2,3,4,
{8}5/1-6[8:1],8,4-8[8:1],3,6-2[8:1],5,3,4,
{24}1b-5[8:1],8,7,{8}6-2[8:1],1,6,,5<8[8:1]*-8[8:1],8>3[8:1]*-3[8:1],5,
{8},,4-1[8:1],,6<1[8:1],,{24}2,3,4,5,,,
{8},84,7-4[8:1]/3-8[8:1],62,7>2[8:1]/3<6[8:1],,,,
{8}1-4[8:1],2,6-1[8:1],7,3-7[8:1],4,6,5,
{24}8b<5[8:1],1,2,{8}3-7[8:1],8,3,,4>1[8:1]*-1[8:1],1<6[8:1]*-6[8:1],4,
{8},,5<8[8:1]*>2[8:1],,5w1[8:1],,5b,,
{8}37,2-5[8:1]/6-1[8:1],15,26,{16},,8,4,6,,2,6,
{8}8-3[8:1],1,5-1[8:1],6,3-7[8:1],4,6,5,
{24}8b-4[8:1],1,2,{8}3>5[4:1],8,3,,4-8[8:1],3,4,
{8}2-5[8:1],1,2,,7-4[8:1],1-6[8:1],7,1,
{8}4-7[8:1],2-5[8:1],4,2,8b-3[8:1],,6,6,
{8}8-5[8:1],7,3-8[8:1],2,6-2[8:1],5,3,4,
{24}1b-5[8:1],8,7,{8}6<4[4:1],1,6,,5-1[8:1],6,5,
{8}7-4[8:1],8,7,,2w6[8:1],13,2,,
{8}5-1[8:1],7-4[8:1],5,7,,{24}1,2,3,4,5,6,7,8,1,
{8}2/4-8[4:1],,3,,3<6[8:1],,3,8>3[8:1],
{8},8,6pp6[32:9]*qq6[32:9],,6b,,,,
{8}4>8[4:1],,8<4[4:1],,4>1[8:1],,8,8,
{8},2,2<4[4:1]*p4[4:1],43,2b,,,,
{8}8-6[8:1],,1-6[8:1],,2-6[8:1],,3,3-6[8:1],
{8},4,4-8[8:1]*-2[8:1],,,,28,,
{32}5,6,7,8,1-6[8:1],2,3,4,{8}5,1b-4[8:1],,7/1b-5[8:1],,1b/3<3[8:15]*>3[8:15],
{8},,,,,,,,
{1},,
E
