&title=迷星叫
&artist=MyGO!!!!!
&first=0.08
&des=闇靈DarkM.迷途之子
&des_5=
&lv_5=13
&inote_5=(190){4},,,,{1}4<5qq3-6<2[2:3],
,5>4pp6-3>7[2:3],
{4}E3,E2,E1,2,
{1}7/5bqq4[2:1]*pp6[2:1],
8bv1[2:1]/5b-1[2:1],
2/6bqq4<8[8:5],
1b>4q1[2:1],
{4}5<8[8:1]/3,4-2[8:1],1,{8}3,5,
{4}4>1[8:1]/6,5-7[8:1],8,{8}6,4,
{4}5/3h[4:1],1,4/6h[4:1],8,
{8}5/3,4,3,{16}2,1,{8}2,3bx/8bx,,,5/4h[4:3],
,,7h[8:3],,,,,5/6h[4:3],
,,3h[8:3],,,,,4/2h[4:3],
,,7h[8:3],,,,,3/8h[4:3],
,,1h[8:3],,,,,2p3[2:1],
,,4,,,{4}8,
{8}7q6[2:1],,,5,,,{4}1,
{8}2p1[2:1],,,4,,,{4}8<3[8:3],
{8}Cfh[8:3],,,,,,8,8,
{4}5,5/3h[4:1],{8}1,1,{4}2h[4:1],
4,4/6h[4:1],{8}8,8,{4}7,
6/5,5/3h[4:1],{8}1,2,{4}2/8,
{8}7x-5[8:1],7x,{4}4,{8}3x-1[8:1],3x,{4}8,
8/2,6/5,{8}3,4,{4}2/5,
1/7,3/4,{8}6,5,{4}7/4,
{8}2>4[8:1],2,{4}5,{8}6,6<3[4:1],5,4,
,4,4,{16}5,4,{8}5,3,{4}7b/2b,
3/4h[4:3],B1/E1,E7/B6,3-8[4:1],
8-5[4:1],5-2[4:1],2,8,
7/5h[2:1],B3/B4,E1/B1,6pp5[16:5]/4qq5[16:5],
{2}6/4,{8}7,{16}3,4,{8}3,{16}6,5,
{8}6,4,8,2-5[8:1],1,2,,7/8,
,6,4/5,3,{16}4/2xh[16:3],,,8xh[16:3],,,{8}1x,
{4}6/2-5[8:1],8-4[8:1],{8}3,2,{4}1/5,
3/7-4[8:1],1-5[8:1],{8}6,7,{4}8/4,
6/2-5[8:1],1-6[8:1],{8}4,3,2,1,
8bx/4bx,6,2,8bx/4bx,2,6,{16}B3,B7,B1,B5,
{4}Cf,,,1-3[8:1],
7/1-5<7[4:1],1/4h[4:1],{8},,1-7[8:1],3,
{4}1-5>3[4:1],1/6h[4:1],{8},,1-4[8:1],5,
{4}1-6[8:1],1,{8}3,3V17[4:1],,7-5p3[8:5],
,4,{4}4,1x,8x-6[8:1],
2/8-2v3[4:1],8/5h[4:1],,4-6[8:1],
2/4-2v1[4:1],4/7h[4:1],,8-4[8:1],
8/2>5[8:1],{8}6,6<1[8:1],,4-8[8:1],,5,
,1,8/2,3,4/5,{16}6,5,6,5,6x,5x,
{4}6x,{8}1/8,2,3/4,5,3/4,2,
{4}8/1h[4:1],{8}6,3-8[8:1]/4-7[8:1],,4/3,,1/6,
{4}1/6-2[8:1],8-3[8:1],4-7[8:1],1-5[8:1],
8>3[8:1],{8}4,4-1[8:1],,7,{4}7,
A3f/D4/D3/B3/5bx-7[8:1],5-1[8:1],5-8[8:1],5,
A6f/D6/D7/B6/4bx-2[8:1],4-8[8:1],4-1[8:1],{8}4,5,
6/8b,5,4,3/1b,,5/4w8[8:1],,4b,
,6/2,3,4/5,6,{16}4,5,4,5,4,5,
{4}4,7-3[8:1]/1-3[8:1],7/1-7[8:1],7/1-4-7-2-5-1b[4:3],
6bh[2:1],,,8x<5pp4[4:5],
{8}4h[8:1],,,3h[8:1],,,{4}2h[8:1],
{8},1h[8:1],,,8,8,{4}4>1pp8[4:5],
{8}8h[8:1],,,7h[8:1],,,{4}6h[8:1],
{8},5h[8:1],,,4,4,{4}1qq2>5[4:5],
{8}4h[8:1],,,5h[8:1],,,{4}6h[8:1],
{8},7h[8:1],,,8,8,{4}4,
{8}6,6h[4:1],,2,2,4-8[8:1],3,4bx,
,7/1,{4}7b/1b,{16}4,5,4,5,4,5,{8}4,
2h[8:3],3,4,5h[8:3],4,3,{8}2,2,
{8}1h[4:1],8,7h[4:1],8,2h[8:3],1,8h[8:1],,
{8}1h[8:3],8,7,6h[8:3],7,8,{8}1,1,
{8}4h[8:1]/2h[8:1],,7h[8:1]/5h[8:1],,1,1,8,,
{8}2x/8x,2x>5b[8:1]/8x,{32},,,,2/6bxh[4:1],E3f,E4,E5,,,,,{8}8,{4}8,
{8}7x/1x,7x<4b[8:1]/1x,{32},,,,7/3bxh[4:1],E7f,E6,E5,,,,,{8}1,{4}1,
{8}6/2,2pp4b[8:1]/6pp8b[8:1],{32},,,,6bx/2bx,B6/B2,Cf,B1/B5,{8}E1/E5,7/3,{4}7/3,
{8}6/5,6/5,7/4,4/7,8/3,8/3,{4}2/1,
{8}2/7,3,4,5,6,7,8<2[4:3],1,
{1}2b,
1v3[4:5],
6V82[4:5],
3v5[4:5],
8-6[4:3],
{4}2,2/4,5/2,6/2,
7,7/5,7/4-1[8:1],4b/5,
{8}7/2,{16}3,4,{8}3,6,5/4,5-1[8:1]/4-8[8:1],6/3,5b/4b,
,7-4[8:1]/2-5[8:1],6/3,7b/2b,{16},,1,8,1,8,1,8,
{4}1,{8}2-5[8:1],6,{4}2,{8}7/8,6,
4/5,3,2/1,3-1[8:1]/8-4[8:1],,8/3,,5/2,
{4}5/2-6[8:1],7-4[8:1],{8}8-3[8:1],8,{4}5-8[8:1],
2>5[8:1],{8}6,6<1[8:1],,3,{4}3,
A6f/D6/D7/B6/4b-2[8:1],4-8[8:1],4-1b[8:1],4,
A3f/D4/D3/B3/5b-7[8:1],5-1[8:1],5-8b[8:1],{8}5,4,
3/1b,4,5,6/8b,,4/5w1b[8:1],,5b,
,3/7,6,5/4,3,{16}5,4,5,4,5,4,
{4}5,1-3[8:1]/8-3[8:1],8-6[8:1]/1-6[8:1],1/8-5-2-7-4-8b[4:3],
{4}3bh[2:1],,,1x,
{8}7/1,2,3,4/7,6,5,4/3,3,
2/8,7,6,5/2,3,4,5/6,6,
7/4,3,2,1/5,6,7,8/3,3,
{4}6/2h[4:3],D4/E4/A4,E1/B8/B1,D6/E6/A5,
{8}4>1[8:1]/6,,5-7[8:1],5,8,,{8}6/1,,
{8}5<8[8:1]/3,,4-2[8:1],4,1,,{8}3/8,,
{4}6/5>2[8:1],8,{8}1/7,6,4/5,3,
{8}2/8,{16}3,5,{8}4,{16}7,8,{8}7,2/1,{4}3b/8b,
{1}3bz7<5z1<7[4:27]`7bs3<5s1>3[4:27],
E
