&title=Le Porteur d'Ombre
&title=Le Porteur d'Ombre
&artist=黒皇帝 feat. AKA
&first=0.04
&lv_5=14
&des_5=MianTuan feat.xiw
&inote_5=
(220){4},{1},{4},,,{128}7bxV53-1b[16:17],
2xV46-8<7<6>5>4>3>2[128:287],{1},{4},,,{16},,,{64},,,{1}1xh[2:3],
{2}E1/B8/B1,B5/B4/E5,
{128}6bx-8V24>3>2<1<8<7<6b[4:9],3x-1V75[128:135],{1},{4},,,{16},,,{64},,,{1}5xh[4:3],
{12}4,6,4,6,4,6,4,6,4,6,4,6,
{4}3b,3,4/3,5/3,
6,6,6/2,6/3,
5,5,4,4,
6/3,6/3,{2}2h[4:1]/7h[4:1],
{8}1b,1,1,1,7h,4h,6h,3h,
5,5,5,5,4h,6h,2h,8h,
{16}3h,5,3h,5,3h,5,3h,5,2h,4,2h,4,2h,4,2h,4,
{8}1h[8:5],{24}E5,B5,B6,{8}E7,{24}E1,B1,B2,{8}E3,{24}4x,5x,6x,7x,8x,1x,2x,3x,4x,
{2}5x>7[4:1],{4}4b,2-4[8:1],
5,{8}6,6,{4}7-1[8:1],4,
3-5[8:1],7,8-6[8:1],4,
{8}5/3,5/3,{4}5/3,{8}7/1,{16}8,2,{8}1bx,1bx,
{4}3h[4:1],8-4[8:1],2/8,3/5,
2-8[8:1],7/2>5[8:1],2/5,{8}8,8,
{4}7-1[8:1],4/7v4[8:1],2/7,{8}3/5,{16}6,4,
{8}6,{16}3,4,{8}2,1x/5x,{16}3,4,{8}2,{16}7,1,7,1,
{4}7,{8}8bx-5[8:1]/2bx-5[8:1],2bx/8bx,{4}2bx/8bx,6x/4x,
3-8[8:1],7-4[8:1],2-5[8:1],6-1[8:1],
3-6[8:1],8-5[8:1],4-1[8:1],7,
{8}8/2,8/2,{4}8/2,{8}6/4,{16}3,5,{8}4bx,4bx,
{4}B8,B6/B2,E8/E4,B5/B1,
8/6,3/1,7/2,{12}8x,1x,8x,
{8}2b,4,3x,6b,4,5x,{4}2b,
{8}8b-4[8:1],,,7b-3[8:1],,,{4}5bw1[8:1],
5,{8}7x,3h[4:1],{4}8,7/4h[4:1],
{8}6,1h[4:1],{4}5,6/2h[4:1],7>2[8:1],
{8}4,3<6[8:1],,7,{4}8-4[8:1],2,
5/3h[8:3],{8}6,7h[4:1],{4}4,5h[4:1],
8h[4:1],{8}4,3h[8:7],{4}5-7[8:1],5,
8-4[8:1],8,5/2h[8:3],5,
4/6h[2:1],4,4,{8}3,2,
7/1,{16}6,5,{8}6,7/3,{16}2,4,2,4,{4}1-5b[8:1],
5>7[4:3],6h[8:1],6h[8:1],6h[8:1],
5h[8:1],5,{16}4-2[8:1],6,4,6,{4}4,
7h[8:1]/1h[8:1],7h[8:1]/1h[8:1],8h[8:1]/2h[8:1],8h[8:1]/2h[8:1],
{8}4,5/3,3/5,2h[8:1],{24}7x,6x,5x,4x,,,{4}1h[8:1],
{8}8/2,8/2,8/2,8/2,7/3,7/3,7/3,7/3,
{16}4,6,4,6,4,6,4,6,3v8[8:1],5,3,5,{48},,,,,,,,,,,,{24}7/1,
6,5,4,,,,,,2/8,3,4,{4}5,{32}8b/2b,7,6,5,{8}4,
{32},,,,8b/6b,1,2,3,{4}4h[8:1],{32}7x,8,1,2,3,4,5,6,{4}2x>4-6-8-2-4>1[1:7]/7x<5-3-1-7-5<8[1:7],
{64}7bx/2bx/B8/B4/B6/B2,Cf,{1},,,,,,,{4},{16},,,{32},{2}2h[1:2],
{1}8pp5[4:5],
,3h[2:1]/6p4[4:5],
{2}2,1,
{1}5>4p1[2:5]*q1[1:1],
,Ch[1:1],
{4}A2,A8,A4,A6,
5bx/3bxh[1:1],,,4,
{2}4,7h[1:1],
{8}1,1,,,{4}2,3,
{8}4h[2:1],5,,,{4}6h[4:1],2h[4:1],
{2}8h[1:1],{4}3,2,
1h[4:1],{8}7,2h[8:3],,,{4}6h[1:1],
{1}5h[2:1],
{8}2h[2:1],4,,,{4}6,7,
5bx/8bxh[1:1],,,6,
4,2,{2}1/7h[4:1],
{8}2/6h[2:1],2,,,{4}3,4,
5/7h[8:3],{8}4,3h[4:1],,5,{4}6/2,
{1}1>5q4[2:3]/5<1q1[2:3],
{8},,,,,,,,A2,
,,A1,,,{4}A8,
{8},A7,,,6/4-8b[8:1],{16}3,5,{4}4,
{8}7,{16}4,5,{8}4,6,{16}3,4,{8}3,6,{16}3,4,
2,4,{8}3,{16}6,4,6,4,6,7,8,1,2,3,4,5,
{8}6/1,{16}7,8,{8}7,2,{16}8,1,{8}8,3,{16}8,1,
7,1,{8}8,{16}2,1,2,1,2x,3,4x,5,6x,7,8x,1,
{8}2x/7x,{16}3,4,{8}5x,7/2,{16}6,5,{8}4x,7/2,{16}1,8,
1,8,{8}1,{16}7,6,5,4,1,2,3,4,5,6,7,8,
{8}1/5,{16}2,4,{8}2,5/1,{16}3,4,{8}3,6/2,{16}4,5,
3,4,{8}3,{16}5,6,7,8,3x,4,7x,6,2x,3,6x,5,
{4}1b,1,1,1,
1/D4,1/D5,1/D6,{8}1/D7,1,
{4}8/2V41-5[1:1],8,8,8,
7,7,{16}6,4,,3,{8}5,5,
{16}2,6,2,6,2,6,2,6,2,6,2,6,{4}2,
{16}1,5,1,5,1,5,1,5,1,5,1,5,{32}1x,2x,3x,4x,5x,6x,7x,8x,
{8}E2f/1bx-5[1:1]*-5[1:1],,,B2,,,{4}B4,
{8},D5,{16},,,,,,4,5,{4}3b/6b,
{8}2/8,{16}6,5,{8}6,7/4,{16}3,5,{8}3,2/6,6/2,
{4}1v4[8:1]/7-5[8:1],7>2[8:1],7/3,{8}3/4,2/5,
1b/6b,{16}7,8,{8}7,1,{16}6,5,{8}7,8,8,
7-4[8:1]/1-5[8:1],2/6,{4}7/1-3-6[4:1],1x,{8}8bx,8bx,
7/5,7/5,{4}5/7-1[8:1],7/4,{16}3-8[8:1],5,3,5,
{4}3,{8}7-4[8:1],6,2-5[8:1],1,6,7,
3/8,{16}2,1,{8}2,3/6,{16}7,1,7,1,{4}8h[4:1],
{16}2,3,4,5,8,7,6,5,8,1,2,3,{32}6x,5x,4x,3x,2x,1x,8x,7x,
{4}2bxv5[8:1]/6bx-1b[8:1],2/6,4>1[8:1],8/4x,
7-4[8:1],7/2-8[8:1],2/5,{16}5x,6x,7x,8x,
{4}1x-3[8:1]*v4[8:1],1x-7[8:1]*v6[8:1],1x,{8}5,4,
{16}2/8bh[8:1],,,6/4bh[8:1],,,{8}1/7bh[8:1],{16},5/3bh[8:1],,,{4}6bh[8:1]/2bh[8:1],
{8}1/7,1/7,2/6,2/6,3/5,3/5,{4}4b,
{16}2,8,2,8,3,7,3,7,4,6,4,6,{4}5b,
{24}2x,3x,4x,7x,6x,5x,1x,2x,3x,8x,7x,6x,E1,E2,E3,E4,E5,E6,E7,E8,E1,E2,E3,E4,
{1}E5f/Cfh[4:3],
{8}2x/8xh[8:7],2,2,2,2,2,2,2,
7/3,3/7,6/4,6/4,5/3h[4:1],5,5,{16}5,4,
{8}6h[4:3],5,5,5,4,4,4,4,
{16}3,5,3,5,{8}2h[4:1],4,4,5/3h[4:1],5,{16}6,4,
{8}7h[8:5],5,5,5,5,5,{16}4,6,4,6,
{8}3h[4:1],5,5,6h[4:1],2,2,1h[8:1],7,
7,2x,{24}2x/8x,3,4,5,,,{8}7x,{24}7x/1x,6,5,{12}4,{24},,6x/3x,7x/2x,
{2}8xz4[8:1]/1xs5[8:1],6x-1b[8:1]/3x-8b[8:1],
{8}2x-4[8:1],2,8-6[8:1],8,1-3[8:1],1,7-5[8:1],7,
4-8[8:1],4,6-2[8:1],6,1-4[8:1],1,7-3[8:1],7,
5-2[8:1],5,1-6[8:1],1,3>1[8:1],3,{16}7,6,{8}5,
{12}3b,4,2,5b,4,6,3-7[8:1],4,2,3x,{48},,,,,,,,{16}1,
8,1,8,1,8,1,8,2-6[8:1],7,1,8,{4}2x,
{16}5,5,5,5,5,5,5,5,5-1[8:1],5,5,5,{4}5x,
{32}3,4,5,6,7,8,1,2,3,4,5,6,7,8,1,2,3,4,5,6,7,8,1,2,{4}7/3,
{16}6,5,6,5,{8}6h[8:1],{16}3,4,3,4,{8}3h[8:1],{32}7x,6x,5x,4x,3x,2x,1x,8x,
{4}7x-3b[8:1],{64}3xqq6[4:7],Cf/7bxqq2[64:111],
E
&lv_6=14+
&des_6=Evernight City
&inote_6=
(220){4},{1},{4},,,{48}8h[2:3]/1bs5-7>2-4z8[4:11],
B1f,C,B5,{12}A5,{1},{4},,,{12},{1}6h[2:3],
{2},C,
{48}1h[1:1]/8bz4-2<7-5b[4:9],B8f,C,B4,{12}A4,{1},{4},,,{12},{1}3h[2:1],
{16}8/2,3,4,5,6,7,8,1,2/5,6,7,8,1,2,3,4,
{4}5/2h[4:3],4,4,4,
6h[4:3],5,5,5,
3h[8:1],4/3h[8:1],2/3h[8:1],1/3h[8:1],
6h[8:1],8/6h[8:1],7/6h[8:1],5/6h[8:1],
{8}4,4,4,4,6h/4h,4h/6h,7h/3h,3h/7h,
8,8,8,8,1h/7h,7h/1h,2h/6h,6h/2h,
{16}3x,5x,3x,5x,3x,5x,3x,5x,2,6,2,6,2,6,2,6,
{24}B2/E3,B3,B4,E5,,,B7/E7,B6,B5,E5,{72},,,,,,{36}D2/E2,A2,D3,A3,D4,A4,,,,D8/E8,A7,D7,A6,D6,{9}A5,
{4}Cf,2-5[8:1]/7-4[8:1],2b/7b,{8}3h[8:1],4,
3h[8:1],2,3h[8:1],4,3h[8:1],2,3,4,
5h[8:1],4,5h[8:1],6,5h[8:1],4,3/7,2,
1/8,1/8,{4}1/8,{8}7/2-5[8:1],{16}1-6[8:1],8,{8}2,1,
{4}3b,{8}7-1[8:1],2,7-5[8:1],3,7,{16}4,3,
{8}2-8[8:1],6,2-4[8:1],7,2,6,6,{16}1,8,
{4}2/7,{8}4/5,3,6,{16}2,4,{8}3,{16}6,5,
{4}4/7,{8}2/5,{16}3,4,{8}3,1/8,{16}7,4,5,2,
{4}C,{12}1xs5[8:1]/8xz4[8:1],7x/2x,3x/6x,{4}1b/8b,{8}6x/3x-8[8:1],{16}4,5,
{4}3,{8}7-4[8:1],7,1-5[8:1],1,6,7,
4/8-4[8:1],8,2-5[8:1],2,1<6[8:1],1,3,4,
5/3,5/3,5/3,6,{16}1/7-4[8:1],6/2,{8}5/3-8[8:1],7,3,
{4}6,6,3,3,
7/2,7/2,1/8,{16}3,5,{8}3,
{4}4h[8:1]/6h[8:1],{8}6/4,5h[8:1]/7h[8:1],,5/7,8,8,
7/2,{16}1,8,{8}1,2/6,{16}8-4[8:1],1,{8}7,{96}8bx,Cf,{16},,,{64},,{96},{4}1h[8:1]/7h[8:1],
1h[8:1]/7h[8:1],3h[8:1]/5h[8:1],3h[8:1]/5h[8:1],
{8}2/4,3,5/7,6,3,2/4,6,5/7,
8-4[8:1],8,2-5[8:1],2,6-1[8:1],6,2,2,
{16}3,4,{8}3,7/1,7/1,{16}6,4,6,4,{8}7/3,8/2,
3h[8:1],4,3h[8:1],4,3h[8:1],5,3h[8:1],6,
4/5,2,4/5,7,3/4,2,5/6,{16}4,7,
{8}3-5[8:1],3,7-3[8:1],7,{4}1v6[8:1]*v4[8:1],1,
{8}7/3,{16}6,5,{8}6,7/1,{16}3,4,{8}3,{4}7b/2b,
{8}6h[8:1],5,6h[8:1],5,7h[8:1],4,7h[8:1],4,
3/5,2,4/6,7,{16}1-5[8:1],8,1,8,{4}1,
{8}6/4,4,3/5,5,4/2,2,5/3,6,
1>4[8:1],1,7,7,{24}6,5,6,5,,,{4}7b/2b,
{8}3-8[8:1],3,6-1[8:1],6,2-5[8:1],2,7,7,
{16}8,1,8,1,8,1,8,1,7,2,7,2,{32}6x,5x,4x,3x,2x,1x,8x,7x,
{8}3b/6xh[8:3],{32},,,,,,,,1b,2,3,4h[32:9],,,,,,,,,8b,7,6,5h[32:9],,,,,,,,,4b,
3,2,1h[32:9],{4},{24}6,5,4,3,2,1,{32}4/8-4[8:1]*-4[8:1],5,6,7,8,1,2,3,
{64}8bx<5q1q4b[4:27],4bx>1q4[64:431],{32}Cf,{1},,,,,,,{4},{16},,,{2}2h[1:2],
{1}6qq4[4:5],
,3h[2:1]/5pp7pp1[4:5],
{2}E5,E3,
{1}6h[1:1]/1qq7qq5qq3[4:5],
{2},8p5[1:1],
{1}4-1b[2:1],
{4}7h[4:1],2h[4:1],4h[4:1],5h[4:1],
6h[1:1],,,7,
{2}7-1>2-4[4:3],6h[4:1],
{8}5-7-4[2:1],5,,,{4}2,2-5>4-8[4:3],
{8}6,6,,,{4}7,6,
1h[2:1]/5pp8[4:3],,,2,
{8}2h[8:3],,,8-4-6-1[8:7],,,{4}2,
{8}3,3h[8:3],,,,,{4}4,
{1}6p8p4[16:11],
{4}1qq4[4:3],,,5,
6h[4:1],3q5[2:1],{2}8h[4:1],
{8}7<2[2:1],7,,,{4}1,1V72-5[4:3]*V38-5[4:3],
{1},{32}4bxq1[2:1]/6bxp1[2:1],
3/7,2/8,1,{4},,,{16},,{1}3v2-5[2:1]/7v8-5[2:1],
{8}3h[8:3],,,4h[8:3],,,{4}5h[8:3],
{8},6h[16:1],{16},,,,,,1,8,1,7,2,6,
{4}3>1[8:1],{16}3/7,6,{8}5q1[8:1],{16},,5/2,3,{4}4p7[8:1],
{16}4/7,6,{8}5h[8:3],{16},,6,7,8,1,2,3,{8}4h[4:1],{16}7,6,
{4}5-1[8:1],{16}5/2,3,{8}4-8[8:1],{16},,4/7,6,{4}5q1[8:1],
{16}5/2,3,{8}4h[4:1],,8,6h[16:1]/2h[16:1],6h[16:1]/2h[16:1],6h[16:1]/2h[16:1],6h[16:1]/2h[16:1],
{4}5/3,{16}2/6,7,{8}8-4b[8:1],{16},,8/3,2,{4}1q5b[8:1],
{16}1/6,7,{8}8h[8:3],{16},,6,5,4,3,2,1,{8}8h[4:1],{16}4,5,
{4}6-1b[8:1],{16}6/4,3,{8}2q6b[8:1],{16},,2/7,8,{4}1p5b[8:1],
{16}1/4,3,{8}2h[8:1],,7/3,{16}6h[16:1],4h[16:1],6h[16:1],4h[16:1],6h[16:1],4h[16:1],6h[16:1],4h[16:1],
{4}5h[8:1],5h[8:1],5h[8:1],5h[8:1],
5/E8,5/E1,{16}5/E2,,,3,{8}4,5/2,
{4}1h[8:1],1h[8:1],1h[8:1],1h[8:1],
1/E4,1/E6,{16}2-5[8:1],8,,8,{4}2,
{8}7,7,6/4,6/4,5/3,5/3,4/2,4/2,
{16}3,5,3,5,3,5,3,5,{24}2,1,8,7,6,5,4/7,8,1,2,3,4,
{8}5/1bs5b[8:7],,,B7,,,{4}B3,
{8},B1,,,5/4,{16}4,5,{4}3b/6b,
{8}2b/7b,{16}3,4,3,4,{8}2h[8:1],7-4[8:1],8,7/1,2,
{24}5x,6x,7x,2x/8x-4b[16:1],,,{4}1,{8}1-5[8:1],5,1-3b[8:1],{16}6,7,
{4}8/1x,{16}6,5,{8}7h[8:1],1-5[8:1],2,1/3,4,
3/7,3/7,2/6,2/6,1-6-8-2[16:5],4-8b[8:1],{4}1,
{8},,6/3,{16}2,4,2,4,{8}3h[8:1],8b,{16}7,5,
7,5,{8}6h[8:1],2b,3/7,8-4b[8:1],4,8-6[8:1],{16}3,2,
{4}1/8x,{16}3,4,{8}2h[8:1],8-4b[8:1],7,8/6,5,
6/2,6/2,7/3,7/3,8-4[8:1],5-2b[8:1],8,5,
{16},,7,1,{8}7,2/6,{16}3,4,{8}2,{16}6,5,{8}7,
{24}1,2,3,8,7,6,{4}5/4,{16}1-5b[8:1],6,2,7,{8}1-3[8:1],{16}8,7,
{4}6/1x,{16}6,5,{8}7,{16}3,4,2,4,{8}3,{16}6,5,
7h[8:1],,,3h[8:1]/4h[8:1],,,{8}2h[8:1]/1h[8:1],{16},5h[8:1]/6h[8:1],,,{4}8h[8:1]/1h[8:1],
{8}2,2,2/4,2/4,5/2-6b[8:1],2/5,{4}2/6b,
{16}7,5,7,5,7,4,7,3,7-1b[8:1],2,7,1,{4}7b,
{24}2x,3,4,8,7,6,1,2,3,7,6,5,{32}2,3,4,5,6,7,8,1,2/6h,3,4,5,6,7,8,1,
{1}2bpp4>3-1[2:1]/6bpp8<7-5b[2:1],
{8}2>5[8:1],2,8-4b[8:1],8,1q5[8:1],1,7v4b[8:1],7,
3-8[8:1],3,6-1b[8:1],6,4p8[8:1],4,5-1b[8:1],5,
2,2,3/4,6,5/7,2,3/4,7,
{16}4,5,{8}4,3/6,2/4,3/6,7/5<8[8:1],3/6,{24}1x,2x,3x,
{8}4x-8b[8:1],4x,{4}7b,{16}6,5,6,4,5,5,{8}6,
{24}4x,3,2,1,8,7,6,5,4,3x/8x,7,6,5,4,3,2,1,8,7x/3x,4,5,6,7,8,
{4}1xh[4:1],{8}7,2/6,{16}1,7,1,7,{32}1h[8:1],,,,,2/8,3/7,4/6,
{4}5-1[8:1],{32}B5,C,{16}B1,,,{8}3b/7b,{16}4,6,{4}4>1b[8:1],
{24}8,7,6,5,,,{8}5x<8[8:1],8,5/1-5b[8:1],2-4[8:1],1,2,
6-1b[8:1],3x,6,2,{16}2,3,4,5,8,7,6,5,
{20}4/1,2,3,4,5,8,1,2,3,4,5/1,8,7,6,5,4/8,{40},,,{8}6x/2x,
{12}3b,4,2,6b,5,7,{24}1x,2,3,8x,7,6,{4}5b/4b,
{16}6b,3,7,4,5b,3,6,2,{24}8x,7,6,1x,2,3,{4}4b/5b,
{16}2,2,4,4,3,3,8,8,1,1,7,7,{4}2b/6bx,
{24}1xh,2,3,7xh,6,5,8xh,1,2,6xh,5,4,8xh,1,2,3,4,5,7xh,8,1,2,3,4,
{32}1b,2,3,4,5,6,7,8,1,2,3,4,5,6,7,8,1/5b,4,3,2,1,8,7,6,5,4,3,2,1,8,2bx/7bx,3bx/6bx,
{4}4bx-8[8:1]/5bxz1[8:1],{96}E1/B8/B7/E7/B6/E5/B4/B3/E3/B2/B5/B1/4x<1pp4b[4:7],{192}5x>8qq5[96:167],Cf,
E
