&title=难忘今宵
&artist=李谷一
&first=0
&lv_5=13
&des_5=我是wmc
&inote_5=
(125){4},{8},,,,,,,3v5[17.04##2.4],
{16},,,,,,,4,{2},{4}5v8[17.28##2.4],
{8},6,{32},,,,,,,7,
{8},,,8v2[17.52##1.92],,,,1,
{16},,,,,,,2v4[17.4##1.92],{2},{8}3,
{2},{8}4v6[17.04##2.22],{32},,,,,,,,,,,,,5,
{16},,,,,,,,,{4}6v1[17.1##2.1],
{16},7,{4},{8}8,{4},1v7[17.28##1.92],
{8},,,8,,,,7-3[17.04##1.44],
{2},6,
{1},,,,,,,,{4},,,{16},,,{32},1-5[5.88##0.3],
{4},2,{32},3-7[3.18##0.24],,,,,,,,4,{4},{16}5,
{32},,,,,,,6-2[2.7##0.3],{4},{8}7,,8-4[1.14##0.3],
{16},,,3,{32},,,,,,,8,{4},6,
{32},1/5<1[0.3##2.04]*>1[0.3##2.04],{1},{4},{16},,{32},8-4[5.76##0.3],
,,,,,,,7,,,,,,,,6-2[3.18##0.3],
,,,,,,,5,{4},{32}4,{4},{32}3-7[2.7##0.3],{4},{16}2,
{32},,,,,,,1-5[1.2##0.3],{4},{8}4,{32},,,,,4,{4},{16}4,
{32},,,,,,,4<8[0.3##2.04]*>8[0.3##2.04],{1},{4},{16},,{32},1-4[3.72##0.3],
{4},{16}5-8[1.56##0.3],
{32},,,,,,,2-7[2.1##0.3],,,,,,,,6-3[1.08##0.3],{4},{32}5,
{4},{32}6,{4},{16}2,{32},,,,,,,1,{16},,,,,4-8[2.1##0.48],
{32},,,,,,,4>8[2.22##1.2],{4},4<8[1.68##1.2],
{32},4w8[4:1],,,,,,,,4,{8},,,,,,,,,{16}8-5[3.48##0.3],
,,,4-1[1.5##0.3],{32},,,,,,,7-2[1.92##0.3],
,,,,,,,3-6[0.96##0.3],,,,,,,,4,,,,,,,,3,,,,,,,,7,
{4},8,{16},5-1[2.04##0.24],{32},,,,,,,5>1[2.4##1.26],{4},{8}5<1[1.86##1.26],
,5w1[8:1],,5,,,,,,,,,,8-3[4.86##0.36]/1-6[5.4##0.36],
{32},,,,,7-4[3.78##0.36]/2-5[5.4##1.5],{4},{16}6-1[4.86##1.5]/3-8[3.24##0.36],{32},,,,,,,5-2[3.78##0.36]/4-7[3.24##0.36],{4},{1}5h[16:13]/4h[16:13],
{8},7/3,{32},,,,,8/4,{4},{16}1/5,{32},,,,,,,6/2,
{1},{4},{16},8-3[5.4##0.36]/1-6[4.86##0.36],
{32},,,,,,,7-4[5.4##1.5]/2-5[3.78##0.36],{4},{8}6-1[3.24##0.36]/3-8[4.86##1.5],
{32},,,,,5-2[3.24##0.36]/4-7[3.78##0.36],{4},{16}5h[16:13]/4h[16:13],{1},,,{4},{16},5b/1b-5[5.82##0.3],
,,,7b/3b-7[4.26##0.3],
{32},,,,,,,2b/6b-2[3.18##0.3],{4},{8}4b/8b-4[3.72##0.3],{32},,,,,1h[32:19]/3h[32:19],{16},,,,,,,,,,,,,,,,,{32}6b/2b,
{4},{32}3b/7b,{4},{16}8b/4b,{32},,,,,,,1b/5b<1[32:25]*>1[32:25],{8},,,,,,,,,,,{4}4b/8b-4[5.94##0.3],
{32},2b/6b-2[4.32##0.3],{4},{16}7b/3b-7[3.24##0.3],{32},,,,,,,5b/1b-5[3.78##0.3],
{4},{8}8h[8:5]/6h[8:5],{1},{32}1b/3b,
{4},{32}6b/1b,{4},{16}8b/1b,
{32},,,,,,,8b/4b<8>2>3<4<6[32:77]*>8[32:31],{8},,,,,,,,,,,,,,,,,,,{4}6q8[4:1],
,{32}1h[32:7],{16},,,{32}2h[32:9],{4},3h[32:9],
{32},4h[32:23],{16},,,,,,,,,,,,,,,,,{8}5h[16:43]/4h[16:43],
,,,1b,{16},,,,,,,1b,
E
&lv_6=1
&des_6=
&inote_6=
(125){4},
E
&lv_7=1
&des_7=
&inote_7=
(125){4},
E
