&title=ageha
&artist=john
&first=0.01
&des=揚羽蝶
&lv_5=12+
&inote_5=(150){1},
{8}1b,,2^4[8:1],8,2,,5,,
{8}1,,6,6qq7[4:1],,4,,,
{8}1,,8^6[8:1],2,8,,4,,
{8}8,,3,3pp2[4:1],,5,,,
{8}1b/7b,,8<4[4:1],,3,2,1pp6[8:3],,
{8}5,6,7,8h[2:1],,6,6,,
{4}4qq8[2:1]/2,1h[2:1],,,
{8}1,2,3,4,5,6,7,,
{8}8/2,,1>5[4:1],,6,7,8qq3[8:3],,
{8}4,3,2,1h[2:1],,3,3,,
{8}2b/4h[16:3],,,5b/7h[16:3],,,8b/1h[16:3],,
{16}7,,6,,5b/2,,4,,3,,2,,1,8,1,8,
{8}1b,,7^4[8:1],8,7,,1,2,
{8}3,3-5[8:1]/6-4[8:1],,3/6,,,8,1,
{8}6,5,7,7,3,4,2,2,
{8}6,5,7/5,7h[8:3]/5,,,8b,,
{8}1,8,2V48[4:1],1,2,,7,6,
{8}5,5-1[8:1]/2-4[8:1],,5/2,,,8,7,
{8}6pp5[4:1],,4qq5[4:1],,,,6,7,
{8}8v5[8:1],5-7[8:1],,,1-5[8:1],5-1[8:1],,,
{4}8b,3>4[8:3],7h[4:1],,
{4}6,2>1[8:3],5h[4:1],,
{8}7,6,5,,2/4,2/4qq7[4:3],,1h[8:7],
{1},
{4}8,3>4[8:3],7h[4:1],,
{4}6,2>1[8:3],5h[4:1],,
{8}6bpp5[8:3],,5,5bqq5[8:3],,2,2b,,
{16},,1,,1b-5[12:1],,,,,,8,,8,1,8,1,
{8}8b,7,6/1,2,3/7,6,5/2^7[16:3],3,
{8}7pp2[8:3],,5,,5,,6/1,7,
{8}8,8h[8:1],2,2h[8:1],4,4h[8:1],6,6h[8:1],
{1}5pp2[2:1]*qq8[2:1],
{8}4/7,6,2/5,3,4/8,7,1/6^3[8:1],2,
{8}3^6[8:1],,1,,1,,7/3,2,
{8}1,1h[8:1],7,7h[8:1],5,5h[8:1],3,3h[8:1],
{1}4qq8[2:1]*pp8[2:1],
{8}1b-5[8:1]/7b-4[8:1],,,,2/8,8,3,3,
{8}2/4,1,7/5,8,2-4[8:1]/4v1[8:1],,,,
{8}7/5-1[8:1],,,,8,1^3[8:1]/8q4[8:1],,8^6[8:1]/1p5[8:1],
{8},1>8[8:3]/8q1[8:3],,,,,,,
{8}8-4[8:1]/2-5[8:1],,,,7/1,1,6,6,
{8}7/5,8,2/4,1,7-5[8:1]/5-1[8:1],,,,
{8}3bqq4[8:3],2,5pp4[8:3],6b,,,1b,,
{16}2,,3,,4b/7,,5,,6,,7,,8,1,8,1,
{8}8b,2,7^5[8:1],1,7,2,3,4,
{8}8,7,2,3pp2[4:1],,5,,,
{8}7,1,2^4[8:1],8,2,7,6,5,
{8}1,2,7,6qq7[4:1],,4,,,
{8}2,8,1^3[8:1],7,1,8,7,6,
{8}2,3,8,7qq8[4:1],,5,,,
{8}1b/3h[16:3],,,6b/8h[16:3],,,4b/5h[16:3],,
{16},,7/2,,1b-5[12:1]/8b-4[12:1],,,,,,,,1,8,1,8,
{8}1b,3,4/8,6,5b/2b,3,4/6<2[4:1],5,
{16}2bqq6[8:3],,,,4,,,,4,,,,3,7,2,8,
{8}1b,1h[8:1],3,3h[8:1],5,5h[8:1],7,7h[8:1],
{1}8qq4[2:1]*pp5[2:1],
{8}4/3,2,6/5,7,4/2,8,5/7<2[4:1],1,
{8}2>7[4:1],,8,,8,,7/2,1,
{8}8,8h[8:1],6,6h[8:1],4,4h[8:1],2,2h[8:1],
{16}1w5[4:1],,,,,,,,,,,,3,7,2,8,
{8}1bqq7[8:1]*pp3[8:1],,,,2/8,5,7/1,4,
{8}2^4[8:1],1,8pp5[16:5],1,,,,,
{8}3/4-8[8:1],,,,2/7,8^6[8:1]/1p5[8:1],,1^3[8:1]/8q4[8:1],
{8},8<1[8:3]/1p8[8:3],,,,,,,
{8}8pp2[8:1]*qq6[8:1],,,,7/1,4,2/8,5,
{8}7^4[8:1],8,1qq5[16:5],8,,,,,
{8}6bpp5[8:3],7,4qq5[8:3],3b,,,8b,,
{16}7,,6,,5b/2,,4,,3,,2,,1,8,1,8,
{8}1b,,8qq4[8:3],,4,3,2h[8:1],,
{8}1^4[8:1],4-8[8:1],1,7h[4:1],,8,1/6,,
{4}5qq8[2:1]/4,1h[2:1],,,
{8}1/7h[1:0],2,3/5h[1:0],4,5/3h[1:0],6,7/1h[1:0],,
{8}8/2,,1pp5[8:3],,5,6,7h[8:1],,
{8}8^5[8:1],5-1[8:1],8,2h[4:1],,1,8/3,,
{4}4pp1[2:1]/5,8h[2:1],,,
{16}8/2h[1:0],,7,,6/4h[1:0],,5,,4/6h[1:0],,3,,2,8,1,7,
{8}8b,,7qq4[8:3],,4,3,2,1,
{8}8-3[8:1],4-8[8:1],8,4,,8/4,6/2,,
{4}1s5[2:1]*s5[2:1]/5,1h[2:1],,,
{8}1/5h[1:0],2,3/7h[1:0],4,5/1h[1:0],6,7/3h[1:0],,
{8}1/5,,2pp5[8:3],,5,6,7,8,
{16}1-6[8:1],,5-1[8:1],,1,,5,,,,1/5,,3,6,2,7,
{8}1b/8h[16:3],,,4b/2h[16:3],,,7b/5h[16:3],,
{1}4qq5[2:3]/5pp4[2:3],
{1},
{1},
E
