&title=Crimson Phoenix
&artist=xi vs MASAKI
&first=0.01
&des=Hanario
&lv_5=14+
&inote_5=(180){1},
{8}3h[4:3]/6,,4,4,,4,5,6,
{16}7h[4:3]/5,,,4,,,3,,,,2,,2,,,,
{16}8-4[8:1],1,7,2,8b,,,,3,5,3,4,,2,2h[8:1],,
{16}6,4,6,5,,7,7h[8:1],,4,6,3,5,{24}3,2,1,8,,,
{16}5-2[8:1],,,6,,,7,,1/8-5[8:1],,,1,,,2,,
{16}3-8[8:1]/5,,,6,,,7h[4:1],,,,2,,48,,,,
{16}2b-4[16:1],,,2/8b-6[16:1],,,8/5b-1[16:1],,,5b,,,8-4[8:1],,17,,
{8}8b/4>5[8:3],,,,,,1,,
{8}27,{16}3,4,{8}3,{16}6,5,6,,{24}3,4,3,{8}4,2,
{16}18,,7,8,6,,1,,2,5,3,6,4,7,5,,
{8}74,{16}6,5,{8}6,{16}3,4,3,,{24}6,5,6,{8}5,7,
{16}81,,2,1,3,,8,,3-8[8:1],5,4-7[8:1],6,3,,4,,
{16}2,,,,3,4,3,2,3,4,3,2,3,,1,,
{16}27,,,,6,5,6,7,6,5,6,7,6,,8,,
{16}2,1,,3,4,,1,8,,5,6,,61,,2,,
{16}7,8,,6,5,,8,1,,4,3,,38,,7,,
{8}1bp7[2:1]*q3[2:1],,,,,,,,
{24}2,3,4,{16}5,7,,1,8,,8,1,,8h[16:3],,,2b,,
{16}7-5[8:1],7,,5,,,4,,7-5[8:1],7,,5,,,4,,
{16}7-5[8:1],7,,5,,,4,,7-5[8:1],7,,5,,,4,,
{16}7-5[8:1],7,,5,,,4,,7h[16:6],,,8,,,1,,
{16}2h[16:6]/1,,,3,,,4,,5,,3,5,2,6,1,7,
{16}2-4[8:1],2,,4,,,5,,2-4[8:1],2,,4,,,5,,
{16}2-4[8:1],2,,4,,,5,,2-4[8:1],2,,4,,,5,,
{16}2-4[8:1],2,,4,,,5,,2h[16:6],,,1,,,8,,
{16}7h[16:6]/8,,,6,,,5,,4,,6,5,7,,4,,
{16}2-6[8:1],6,4,8,2b,,,,,,7,,6,,5^8[8:1],,
{8},2,3,4^1[8:1],,7,,6,
{16}1-5[8:1],5,3,7,1b,,,,,,5,,6,,7^1[8:1]*^5[8:1],,
{8},,,2,3,{16}6,4,7,5,8,4,
{16}1-5[8:1],3,8,2,1b,,,,1,1h[8:1],,3,3h[8:1],,5,,
{16}7,7h[8:1],,5,5h[8:1],,3,,1,1h[8:1],,7,7h[8:1],,5,5,
{8},52,3,4,58,7,6,5,
{12}2,4,2,7,5,7,{16}4,5,4,5,3,6,3,6,
{8}27,2,42,2,72,{24}2,3,4,{8}57,6,
{8}75,7,17,7,47,{24}7,6,5,{8}42,3,
{8}21,2,42,2,72,{24}2,3,4,{8}57,6,
{8}3bpp1[2:1]/7bqq1[2:1],,,,,,,,
{8}2h[2:1],,,,4h[4:1],,3,4,
{8}3q5[8:6],,,,6,,5<4[8:5],,
{8}7V16[16:6],,,,,,5,,
{8}6V47[2:1],,,,3,,2,,
{8}7h[2:1],,,,8h[4:1],,7,8,
{8}6p4[8:6],,,,3,,4>5[8:5],,
{8}2V83[16:6],,,,,,4,,
{8}4h[4:1],,5,5,45,45,3-5[8:1]/6-4[8:1],27,
{16},,,,2,4,3,4,1,5,4,5,8,4,3,4,
{16}1h[16:2],,5,2h[8:1],,6,3h[8:1],,7,4h[8:1],,8,4,,3b/7b,,
{16},,3,4,5,6,7,8,5,6,7,8,3,2,1,8,
{16}4,3,2,1,3,4,5,6,8,7,6,5,1,2,3,4,
{16}5/8-5[8:1],,,1,,,2,,4/3-8[8:1],,,4,,,5,,
{16}6-3[8:1]/8,,,1,,,2h[4:1],,,,5,,73,,,,
{16}7b-5[16:1],,,7/1b-3[16:1],,,1/4b-8[16:1],,,4b,,,1s5[8:2]*z5[8:2],,82,,
{8}1b,,,,{16}1,6,2,7,3,8,4,1V75[8:1],
{8}5V31[8:1],,,,61,{24}7,8,7,{8}8,6,
{8}2bp8[4:6],,6,,,,6,,
{8},,6,,,,6,,
{8}7bq1[4:5],,3,,,,3,,
{8},,3,,,,3,,
{16}3b/6b,,4,4,5h[8:1],,3,3,5h[8:1],,2,2,5h[8:1],,1,,
{16}2b/7b,,8,8,1h[8:1],,7,,2,5,3,4,2,,5,,
{16}6b/3b,,5,5,3h[8:1],,6,6,3h[8:1],,7,7,3h[8:1],,8,,
{24}3,1,3,1,3,1,3,1,3,1,3,1,3,1,3,1,3,1,{32}3b,4,5,6,7,8,1,2,
{8}5b-1[8:1]/3,{16},,{8}6,{16}6h[8:1],,{24}7,8,1,{24}2,3,4,{8}51,8,
{16}74,,2,4,1,,18,,3,5,1,6,4,8,2,,
{8}17,{16}3,4,{8}1,{16}6,5,8,,{24}3,4,2,{8}4,51,
{16}15,,7,8,6,,16,,7-3[8:1],1,8-4[8:1],2,7,,8,,
{8}7,,{16}3,4,2,1,3V15[16:3],4,2,1,3,,8,,
{8}7,,{16}7,8,6,5,7,8,6,5,7,,48,,
{16}7-3[16:1],8-4[16:1],,7,8,,7,7,,2-6[16:1],1,,2,,7,,
{16}8,8,3,3,5,5,4,4,{32}6,7,8,1,2,3,4,5,16,2,3,4,5,6,7,8,
{8}1-4[8:1]/5-8[8:1],,1b/5b,,{16}4,8,4,7,3,6,2,5,
{12}1b,1,1,4b,4,4,5b,5,5,7b-3[8:1]*^4[8:1],7,7,
{8}7b,,{12}2,4,3,{16}6,5,7,3,4,2,7,5,
{16}8,,2,4,1,,38,,2-6[8:1],8,1-5[8:1],7,2,,1,,
{8}2,,{16}6,5,7,8,6^1[8:1],5,7^4[8:1],8,6,,,,
{8}7,,{16}3,4,2,1,3^8[8:1],4,2,1,3,,7,,
{16}2-6[16:1],1-5[16:1],,2,1,,2,2,,7-3[16:1],8,,7,,2,,
{16}2-6[16:1],1-5[16:1],,2,1,,2,2,,7-3[16:1],8,,7,,2,,
{8}1bqq8[16:4]*pp2[16:4],,,,,{16}18,18,2b/7b,,,,
{24}5b,6,7,{16}8,2h[8:1],{16},1,3,,5,4,7h[8:1],,
{24}5b,6,7,{16}8,5h[8:1],{16},1,6,,1-5[8:1],8,2,,1b,,,,
{24}4b,3,2,{16}1,7h[8:1],{16},8,6,,4,5,2h[8:1],,
{24}4b,3,2,{16}1,4h[8:1],{16},8,3,,8-4[8:1],1,7,,8b,,,,
{24}5b,6,7,{16}8,2,{16},2,1^4[8:1],,2,8,1,,
{24}5b,6,7,{16}8,3,{16},3,4^1[8:1],,3,5,4,,
{16}7b,,,,2,4,2,7,5,7,3,4,
{16}1,6,5,8,2,4,3,6,4,8,5,7,{24}1-5[8:1],8,1,8,1,8,1b,,,,,,
{8}34,3,64,4,25,{24}2,3,4,{8}75,7,
{8}64,6,35,5,74,{24}7,6,5,{8}42,2,
{8}14,1,63,6,84,{24}4,3,2,{8}17,7^2[120#16:1],
{8},,{32}3b/7b,4,5,6,,,
