&title=μάγια
&artist=Street
&first=0
&des=SLoeil as SM_chennn
&freemsg=Street
&wholebpm=190
&des_5=SLoeil as SM_chennn
&lv_5=14
&inote_5=(190)
{1},
{8}5,4,3,27,,1,1,,,{16}6,,5,,{8}4,3,4,5,6,
{8}4,3,27,{16}3,4,3,,{4}1<5[8:5],{8}2h[4:1],,,3,3,{16}4,3,2,,,,{8}15,
{8}2-6[4:3]/6h[4:1],,,4h[4:1],,,8h[4:1],,,7,6,5,46,3V52[8:5]/7V15[8:5],,{8}3b/7b,,,,,,,
{16}1,2,3,4,{8}5v2[8:1]/1v6[8:1],51,,,37,4^1[8:1]/8^5[8:1],,4bqq5[2:1]/8b,,,
{4}6h[8:1],8h[8:1],{8}17,{16}2,4,3V51[8:3],,,,
{4}7-4[8:1],7,{8}26,{16}3,,5/4qq4[8:3],,,,
{4}8h[8:1],7h[8:1],{8}56,{16}3,4,2-6[8:1],,,,
{4}8^5[8:1],4,{8}34,{16}5,,4/6V85[8:3],,,,
{4}1h[8:1],3h[8:1],{8}24,{16}5,3,6q7[8:3],,,,
{4}2^5[8:1],2,{8}8,26,,
{8}3h[8:1],1h[8:1],4h[8:1],8h[8:1],5h[8:1],7h[8:1],
{4}6-2[8:1],1^4[8:1],1^6[8:1]/8,1/2,{8}1b/5bpp1[2:1],,,
{4}2h[8:1],3h[8:1],{8}48,{16}7,5,6V84[8:3],,,,
{4}3-1[8:1],3,{8}27,6,{4}4/5pp4[8:3],3h[8:1],2h[8:1],
{16}16,,2,3,{4}4-8[8:1]/7-5[8:1],4qq1[8:3]/7,{8}6h[8:1],,8h[8:1],,
{4}3V52[8:3]/7,8-4[8:1],8,{16}26,,3,5,{4}4q5[8:3],7-3[8:1],7,4/8<1[4:3],
{8}1h[8:1],,3h[8:1],,6h[8:1],,7qq4[8:5],{16}8pp4[2:1],,{4},,{8},,2b/6bqq3[4:29],,
{16}1h[16:3],,,,,,,,,,,,2h[16:3],,,,,,,,,,,,{16}1,,,1h[16:3],,,,,
{16}8h[16:3],,,,,,,,,,,,7h[16:3],,,,,,,,,,,,{16}8,,,8h[16:3],,,,,
{16}1h[16:3],,,,,,,,,,,,{4}2v1[4:1],,,{16}2,,,2h[16:3],,,,,
{16}8h[16:3],,,,,,,,,,,,{4}7V58[2:1],,,{16}1,,,1h[16:3],,,,,
{8}8>5[1:1]/7,1,6,6h[4:1],,,7,7,8,7h[8:3],,,6,5,46,3,
{8}1<4[1:1]/2,8,3,3h[4:1],,,2,2,1,2h[8:3],,,3,4,53,6,
{8}5>8[1:1]/7,4,8,8,7h[8:1],,6,6,5,5,6h[8:1],,78,1,2,3,
{8}4<1[1:1]/2,5,1,1,2h[8:1],,3,3,4,4,3h[8:1],,12,8,7^4[8:1],4^7[8:1],{2}7^2[8:1],
{8}3,{16}6v4[4:1],5,7,,4q8[4:1],,,,{8}3,{16}2h[16:1],,2h[16:1],,1h[16:1],,18,,,,2pp1[8:3]/7,,
{16}8h[16:1],,8h[16:1],,7h[16:1],,7h[16:1],,7s3[8:3],,,,73,,3>5[8:3],,{16}4h[8:1],,,4h[8:1],,,3,,{8}2-6[8:1],4,2V47[4:1]*V41[4:1],,{2},
{8}6,{16}3v5[4:1],4,2,,5p1[4:1],,,,{8}6,{16}7h[16:1],,7h[16:1],,8h[16:1],,81,,,,7p6[8:3]/2,,
{16}1h[16:1],,1h[16:1],,2h[16:1],,2h[16:1],,2pp5[2:1],,,,26,,8h[2:1],,,,,,,,{4}4^1[8:1],{8}4,{4}7^4[8:1],4w8[8:1]/7,,
{8}2,{16}6v4[4:1],5,7,,4V68[4:1],,,,{8}3,{16}1h[16:1],,1h[16:1],,2h[16:1],,72,,,,1pp1[8:3]/8,,
{16}7h[16:1],,7h[16:1],,6h[16:1],,6h[16:1],,6p4[8:3],,,,46,,4<1[8:3],,{16}2h[8:1],,,2h[8:1],,,3,,{8}4-8[8:1],8,4V25[4:1]*V61[4:1],,{2},
{16}4h[8:1]/2h[8:1],,,4h[8:1]/3h[8:1],,,6h[8:1]/5h[8:1],,,7h[8:1]/5h[8:1],,,84,,62,,1,5,3,,{8}64,82,
{16}1,7,3,5,2-6[8:1],8,4,6,{8}2,7-4[8:1],4,7bs3[8:9]*>6[4:9],,{2},,,,,
{8}5^8[16:3],4,3,2h[4:1],,{16}8,1,7h[4:1],,,,{8}8,56,3h[4:1]/8,,{16}4,5,6,7,8-4[8:1],1,2,3,4/8^3[8:1],,,,
{8}78,6-1[8:1],,65,3h[4:1],,{16}4,3,4,,{8}1/6h[4:1],,{16}7,8,1,2,3,4,5-1[8:1],6,7,8,5/1,,
{8},2^5[8:1],,28,7h[4:1],,{16}5,6,5,,{8}8/3h[4:1],,{16}5,6,7,8,1-5[8:1],2,3,4,1^6[8:1]/5,,,,12,,,,
{8}3,6,{16}2,3,4,5,6,7,38,,{4}2b-4[8:1]/1b-4[8:1],2b/1b-6[8:1]*-7[8:1],1b-5[8:1],1b/5b,
{16}3,4,2qq7[2:1],,,,,,,,{8}7b,,5,5h[4:1],,{16}6,7,8,1,2,3,4-8[8:1],5,6,7,8/4<1[8:3],,,,,,
{8}2,3,4h[4:1],,5,36,1/8h[4:1],,{16}5,6,4,7,3,4,2,5,1>5[4:1],,,,
{16}5,6,7-4[8:1],,,,{8}78,2h[4:1],,{16}4,3,4,,{8}1h[4:1]/6,,{16}4,3,5,2,6,5,7,4,8<4[4:1],,,,28,,,,
{8}1,1,{16}7,6,5,4,3,2,61,,{4}7b-5[8:1]/8b-5[8:1],7b/8b-2[8:1]*-3[8:1],8bw4[8:1],8b,
{16}6,5,7q6[8:12],,,,,,{8}4h[8:2],,,3h[8:2],,,2h[8:2],,,{4}1,1pp4[8:14],
{8}8h[8:2],,,7h[8:2],,,6h[8:2],,,5h[8:2],,,{4}6,6pp5[16:5],
{4}36,1^4[8:1],1^6[8:1]/8,1-5[8:1]/2,5-8[8:1]*-2[8:1]/1,,{16}7h[16:3],,,8,{8}7-5[8:1],16,
{8}2-4[8:1],2,6,6,{16}3,5,4,7,2,,{4}1b-3[8:1]/8b-6[8:1],1b-5[8:1]/8b-4[8:1],1b^4[8:1]/8b^5[8:1],1b/8b,{8},
{24}7h[4:1]/2,3,4,5,6,,,,,{24}3h[4:1]/8,7,6,5,4,,,,,{24}6h[4:1]/1,2,3,4,5,,,,,{24}2h[4:1]/7,6,5,4,3,,,,,
{16}1,8,1,8,1,,{4}2bV48[16:4]/7b,{8},
{8}6,7>6[8:3],,3,2,1h[4:1],,{16}4,3,5,2,6-8[8:1],5,7,4,{4}6,{8}27,
{24}1b/8b,2,3,4,5,6,7,8,1,2b/7b,6,5,4,3<1[4:1],2,1,8,7,{8}6bpp3[8:3]/3b,,,{8}2b^7[8:1],,,5bpp4[4:1],,2,2h[4:1],,
{8}1,38,{16}7,6,5,4,3,2,61,,{4}7b/8b^3[8:1]*-3[8:1],8b^5[8:1]*-5[8:1],8bw4[8:1],8b,{8},
{16}4z8[8:1]/5s1[8:1],,,,{4}4b>5[4:5]/5b<4[4:5],,,,,,,
{4}3-8[8:1]/6,7^4[8:1],1,{16}25,,3,4,3^6[8:1],,,,{4}6qq3[2:1],{8}7h[8:1],,7^2[8:1],,7V51[8:3],,
{4}4-2[8:1],4,{16}38,,2,1,2-6[8:1],,,,{4}7>5[4:1],5,{8}8,26,,
{8}3h[8:1],1h[8:1],4h[8:1],8h[8:1],5h[8:1],7h[8:1],
{4}6-2[8:1],1^4[8:1]*-4[8:1],1^6[8:1]*-6[8:1],1-5[8:1],{8}1b/5bs1[2:1],,,
{4}6h[8:1],8h[8:1],{8}27,{16}3,6,4qq5[4:1],,,,
{4}5pp2[8:3],7h[8:1],{8}8h[8:1],,{4}1/6V48[8:3],2-5[8:1],2,
{16}47,,3,2,{4}1-4[8:1]/6-1[8:1],1<3[8:3]/6,{8}2h[8:1],,2h[8:1],,
{8}15,2,34,5,56,7,48,3,
{8}26,7,{32}1-5[8:1]/8,2,3,4,{8}5V38[4:1],6,6,7,7,
{16}2,1,2,1,2,3,4,5,6,5,6,5,6-4[8:1],7,8,1,
{16}2-6[12:1],,,2/8,,,7h[16:3],,,{32}5,,4,,3,,{8}2pp4[8:1]/7qq5[8:1],18,{1}2b>8[4:14]/7b<1[4:14],,
{2},,,,
{8}2,3h[8:4],4,5h[8:4],,,3,4h[8:4],5,6h[8:4],,,4,5,64,7,
{8}26,5h[8:4],4,3h[8:4],,,5,4h[8:3],
{16}3,,3,,2,5,4,7,5,6,2,1z5[8:4],3,8-5[8:3],4,{1},,,,,,,,,,E
