&title=白日と幻月
&artist=めと(Metomate)
&first=0.02
&des=nakura
&lv_5=13+
&inote_5=(118)
{1},
{16}3h[16:3],4,,,,,4h[16:3],5,,,,,{4},
{16}6h[16:3],4,,,,,5h[16:3],3,,,,,{4},
{16}2h[16:3],,1,8,,,3,3,4,2,5,3,6q3[16:5],4,7h[16:10],5,
{2},{16}1,8,,7b/2b,,3,5,4,
{16}6qq3[16:7],,3,3,,,,1,,1,,1h[16:3],,,7,8,
{16}6,2,5,3,8,4,4,7,,2/8,,3h[16:3]/5,,,7,7,
{16}3,5,4,6h[8:1],,1,8,1,,1/7,,3h[16:3]/5,,,5,3,
{16}6,4,,3/5,,4,6,1,,2/8,,3h[16:3]/7h[16:5],,,,,
{16}4h[16:16],,,3,,3v5[16:3],,3,,,,,,,5h[16:1],,
{16}5h[1:1],,,6,,6v3[16:3],,6,,,,,,,3h[16:1],,
{16}3h[1:1],,,2,,2v7[16:3],,2,,,,,,,7h[16:1],,
{16}7h[16:13],,,8V24[4:1],,2V46[4:1],,,,,,,,,,,
{16}1/7,,6h[16:4],{32}1b,2b,{16}3b,,4,4,,4/6<1[8:1],,3/5,,4/6,,4,
{16}4V28[4:1],,2,,8,,6,6h[16:3],,,1,5,2,4,3,,
{16}6-4[12:1],,2V46[6:1],2,,,7h[16:1],,7V53[6:1],,1,1,,,8h[16:1],,
{16}8h[16:7],,2,,4,,6,6q3[4:1],,7>2[16:3],,,,,,,
{16},,,8b,,3,5,3h[16:3],,,8,4,6,2,5,2,
{16}4,4,1,3,,2,8h[16:6],2h[16:3],,,,,3,4b,,6,
{16}5,,3,4,2,,2/6,,1,1,8,2,,7,3,7,
{16}4,4,6,5,,2,4,2,5,5,8,6,1bqq5[16:7],,,,
{16}1/2,,,,,,,,2,2,4,1,1,5,2,8,
{16}3/7,,,6pp3[16:7]/4,,,5,,4,,,,3q5[8:3],,,,
{16}2,2,,2,,,1,1,6,4,7,3,5,2,2,8,
{4}3p2[8:3]/7p6[8:3],,,1s5[8:1]/8z4[8:1],
{16}1b/8b,,,,2<7[8:1]/6,,3,4,2,,5,,4/6V42[16:3],,7,,
{16}6/8p4[8:1],,1,,8,,1,,3,4,2,5,1,8,2,7,
{8}3b-8[8:1],6,3/4,6,6b-1[8:1],2,6/5,2,
{8}4b>5[8:2],8,4/5,,{16}8,8,1,1,2/7,,,,
{16}2b/7b,,2,4,3,5,4,6,3,,2<7[8:1],4,{8}3,2/6-1[8:1],
{8}5,6/2>5[8:1]*q6[8:1],3,2,,1/8,{24}2,3,4,8,7,6,
{8}3/5,{16}2,4,,7,5,,3,4,3,4,2,5,2,5,
{16}1h[16:1],8h[16:1],1h[16:1],7h[16:1],2h[16:1],6h[16:1],3h[16:1],5h[16:1],
{16}3h[16:1],7h[16:1],3,3h[24:1],7,7h[16:1],3,3h[16:5],
{24}2,1,8,7,6,5,{8}4b-7[32:3],{16}3,3,{8}4,2>5[8:1],1qq5[16:5],2,
{8}1,{16}3,3>6[16:3],,{8}4b,3b/6,{16},5,5h[16:1],3,3h[16:1],7,7h[16:1],
{16}5>3[8:1],,,7,5,,8,8,2q6[8:1],7,,6,6/2,,7p5[16:5],,
{8}8,{16}4,4,,3,3,,1h[16:1],,4/3h[16:1],,8,,5/6h[16:1],,
{8}3b/7b,4h[16:1]/5h[16:1],3h[16:1]/4h[16:1],3h[16:1]/4h[16:1],
{8}4h[16:1]/6h[16:1],6h[16:1]/4h[16:1],4h[16:1]/2h[16:1],4h[16:1]/2h[16:1],
{16}1h[16:1],5h[16:1],1h[16:1],5h[16:1],1h[16:1],5h[16:1],1h[16:1],5h[16:1],
{24}8,1,2,3,4,5,6,7,8/4,1/5,2/6,3/7,
{1}4p1[4:6]/8bp4[4:3],,
{8}3h[16:1],{16}3h[16:5],,,{8}4q5[8:3],4,4/5,,,{16},
{8}6,{16}6h[16:5],5,,{8}5-8[8:1],5,5/4,{16},{16}1,8,1,8,
{16}2b/7b>2[8:1],,3,3,7,3p7[8:1],,3,4,3,,6h[8:1],,5h[8:1],,4,
{12}3/8,1,2,4/7,6,5-1[8:1],{16}2/8,3/7,4/6,5,{8},,
{16}2/5,,4/3,4/3>6[16:7],,6,6,3p6[16:3],,,,,,,,,
{16}4/7,,5/6,5/6h[8:1],,3h[8:1],,4,,2/5,3/6,4/7,,4/7,3/6,2/5,
{16}1>4[16:3],,4,4V28[16:4],,5,,6,,7,,7h[8:1],,{16}1,1,4,
{16}3b/5b,3/5,,2/6,,2/8,,3b/7b,,5/6,4/5,3/4,,7b/1b,,,
{16}3,6h[16:1],4h[16:1],5h[16:1],2,7h[16:1],5h[16:1],6h[16:1],1,6h[16:1],4h[16:1],5h[16:1],2,,3/4,,
{16}1q4[16:5],,5,5,,6,,6<4[16:4],,5,,2h[16:5],,,,,
{16},,1,1,7,2,,3p7[8:1]/6,,4/5,,3/6,,,6,6,
{16}5,7,3,4h[8:1],,1,8,2-5[8:1]/7-4[8:1],,1/8,,2/7,,,1h[16:1]/8h[16:1],,
{24}2,3,4,8,7,6,{12}5/3,5/3,5/3,{16}2h[16:1],6h[16:1],4h[16:1],8b,,,{16}2,4,
{16}3,5,5,4,6,1,8,2h[16:2]/7,,5h[8:1],,3h[16:3],,,7,7,
{32}2>1[16:8],1,8,7,6,5,4,3,{16},,,,,,,,,,3,3,
{16}8,6,6,2,4,4,6,1,,7/8,,3/4,,1/2,,5b/6b,
{16},,2/7,,1/8,1/8,,6h[8:1]/5,,7h[256:1],8h[256:1]/4h[256:1],1h[256:1]/5h[256:1],2h[256:1]/6h[256:1],3h[256:1]/7h[256:1],4h[256:1]/8h[256:1],1b/5b,
