&title=Mrs.Jacqueline's Melancholy
&artist=sasakure.UK vs Patrick Bartley
&first=0
&des=The illegal queen Vs bAd Companyz
&lv_5=14
&inote_5=(180)
{1},
{16}
3b,,4,,5,,4,,3h[8:1]/5h[8:1],,,,2h[8:1]/4h[8:1],,,,1,,4,3,4,3,2/5,,,,74,,
6b,,5,,4,,5,,6h[8:1]/4h[8:1],,,,7h[8:1]/5h[8:1],,,,8,,5,6,4,5,2-6[8:1],,,,2/6,,
8bz4[4:1],,,,,,,,,,3,5,4,6,4,6,3,7,3,7,2,8,1b,1b,1bw5[1:1]*w5[1:1],,,,
,,,,,,,,,,,,,,,,{24},,,,,,,,,4<6[6:1]*-1[6:1],,,
{16},,,,,,,,
6b,,5,,4,,3,,2/4,,4-6[8:1]/2,,,,3h[4:1],,,,7-3[8:1],,,,1h[4:1],,,,
4-2[8:1]*-6[8:1],,,,,,,,1,,,1h[16:9],,,5,,,7,,,8h[16:7],,,,4,,,2,,,81,,,7/5,,,
24,,3,,4,,5,,6,,7/5,,5-3[8:1]/7,,,,6h[4:1],,,,2-6[8:1],,,,8h[4:1],,,,
5-7[8:1]*-3[8:1],,,,,,,,8,,,8h[16:9],,,4,,,2,,,1,,
2-5[8:1]/7-1[8:1],,,,2/7,,,,8<5[8:1]/4>1[8:1],,,,8b/4b,,,,
8,7,6,5,4,3,2,1,7/8,,7-4[8:1]/8,,,,5-2[8:1],,,,8-4[8:1],,,,5-1[8:1],,,,
8,,7,,2>8[16:4]/6,,,,8q2[8:3]/2b,,,,,,,,,,
6,,6,,3,4,2,5,3,4,2,5,1,2,3,4,1,8,7,6,
35,,35,,4,4,4pp4[4:1]*qq4[4:1],,35,,,,,,,,,,
3,5,4,6,3,7,4,6,2,8,3,7,4,6,
4,3,2,1,7,6,5,4,8,7,6,5,1,8,7,6,5/1s5[8:1]*-5[8:1],,,,1,,,,
{12}3,3,4,4,5,5,
{16}7>5[16:6],,7h[8:5],,,,,,,,,,3>5[16:6],,2h[8:5],,,,,,,,,,
4z8[8:3],,7h[8:5],,,,,,,,,,1,,2-6[8:1]/6-2[8:1],,,,,,,,,,
4h[16:2]/5h[16:2],,,3h[8:1]/6h[8:1],,,
1-6[16:1],,,8-3[16:1],,,2-5[16:1],,,7-3[16:1],,,2-6[16:1],,,
7-4[16:1],,,1h[4:1],,,,3qq8[8:3],,,,3b/5b,,,,7,,7,,
7,1,6,2,5<2[8:2],3,5,3,5,,,,4,,4,,
4,8,3,7,2-6[8:1],6,2,6,2V48[4:1],,,,7,,7s3[4:1],,,,2,,2,,,,
8/1,,,65,,,43,,5b<8[8:1]/2b>5[8:1],,,,,,,,
7,5,6,4,5,3,4,3,7,5,6,4,5,3,4,3,
7,5,6,4,5,3,4,3,7,5,6,4,7-1[8:1],5,6,4,
7,2,3,4,5,8,7,6,54,3,2,1,6-1[8:1],5,4,,1bs5[16:2]*v3[16:2],,,,,,,,
6,5,7,4,8,3,1,2,
{1}1b<4[1:2]*p4[1:2],,,
{16}
1v6[16:2],,,2,,,3v8[8:1],,,4,,,5v2[8:1],,,6,,,7v4[8:1],,,8,,,
{6}1h[6:1],2h[6:1],3h[6:1],{16}4h[16:2],,5h[16:2],,6h[16:2],,7h[16:2],,
{6}8bv1[8:5],2h[384:1],3h[384:1],4h[384:1],5h[384:1],6h[384:1],
{16}7h[384:1],,38,,3z7[4:1]/8s4[4:1],,,,,,,,,,,,
{8}1<6[8:1],3V15[4:1],1,3,,8-4[8:1],6,4,,2q6[8:1],35,7h[4:1],,{24}8,1,
2,{16}3b/7b-5[8:1],,,,{8}7-1[8:1],2-4[8:1],7,2,
{16}7,,5,6,4,5,3,,24,,
3,,52,,3,,6-3[8:1]/2-7[8:1],,37,,,,,,
{8}8>3[8:1],6V84[4:1],8,6,,1-5[8:1],3,5,,7p3[8:1],46,2h[4:1],,{24}1,8,
7,{16}6b/2b-4[8:1],,,,2-6[8:1],,6-2[8:1],,{8}8<8[8:3]*>8[8:3],8,,,,,
{16}1,7,1,6,1,5,1,4,1-5[8:1],4,1,4,1b,,,,
{8}6,2>4[16:1],8,7<5[16:1],1,2-5[16:1],8,6-1[16:1],3,4-8[16:1],5,7h[4:1],
,{24}1,26,35,{8}4bz8[16:3]*s8[16:3],,,,,6,75,64,35,2/4h[4:1],,
{16}2,4,3,5,4,7,5,6,4,5,3,6,2,7,
{8}1V75[4:1],7V53[4:1],5V31[4:1],3-1[8:1],,7,6,5,
{24}2b,3,4,,1b,2,3,,8b,1,2,,
7b,6,5,,8b,7,6-3[8:1]*-3[8:1],,1b,8b,
{24}7bpp2[24:32],,{8},,,,,,,,,,,,3h[16:15],,,,,,5h[16:3],,,6h[16:3]/4h[16:3],,,
{16}
7/8,1,2,3,4/5,,2/1,8,7,6,5/4,,
7/1,2,37,4,5/6,,2/8,7,6/2,5,4/3,,
{6}7b/1b,4/8,2/5,
{8}6,7/3,2,1/5,
{6}1h[48:7]/5b,2h[48:7]/5b,3h[48:7]/5b,6h[48:7]/4b,
7h[48:7]/4b,8h[48:7]/4b,{12}3h[48:3],2h[48:3],1h[48:3],8h[48:3],7h[48:3],6h[48:3],
{24}2,3,4,5,6,7,8z4[24:84],1s5[24:83],2,3,4,5,
{1}6b,,,,
{16}
2h[8:3],,,,4,,4h[8:2],,,,5,,4,,
3h[4:1],,,,4,,5,,6pp4[8:9],,,,4,3,2<5[8:6],,,,
{1},
{16}3,4,2,5,1s5[4:1],6,8,7,,,,,,,,,
{8}3<6[8:1],6-2[8:1],3,7,8-4[8:1],3-1[64:7],8,3,
8v3[8:1],3>6[32:6],8,5h[8:3],,{24}4,3,2,
{8}1-4[8:1],,5-7[8:1],5-1[8:1],,,,
{16}7-4[8:1],8,7,8,,,,,
3,5q1[8:1],3,5,1>3[12:1],,3q7[8:1],,,,,,,,
{8}6>3[8:1],3-7[8:1],6,2,1-5[8:1],6-8[64:7],1,6,
1v6[8:1],6<3[32:6],1,4h[8:3],,{24}5,6,7,
{8}8V64[4:1],,4-2[8:1],4q1[4:1],,,,,
4,4,{16}4,1,3,8,2,7,1,6,{24}8b,7,6,5,4,3,2,1,8,7,6,5,
{16}4b-8[8:1],,7-3[8:1],,4,,7,,1,,4,2,5,3,6,4,
7-3[8:1],,6,5,7,,1h[4:1],,{24}4b,5,6,{16}7,,1-5[8:1],1,1,1,
,,,,76,,76,,8,1,7,,1-5[8:1],8,2,,
8/1b,,6>3[8:1],,7,,6b/2,,1,,82,,6,5,7,4,
{16}8b,,2,4,3,,7b,,3,4,2,5,8,7,1,6h[48:7],
{6}2h[12:1],3h[12:1]/4h[12:1],1h[12:1]`8h[12:1],5h[12:1]/6h[12:1],3h[12:1]`7h[12:1],1h[12:1]/2h[12:1],
{16}8,7,6,5,8,7,6,5,8,7,6,5h[8:1],
8,1,2,3,8,1,2,3,8,1,2,3h[8:1],
4,5,6,7,4,5,6,7,4,5,6,7h[8:1],
4,3,2,1,4,3,2,1,4,3,2,1,
{16}4h[16:5],,,8h[8:1],,,1h[8:1]/5h[8:1],,,2h[8:1]`6h[8:1],,,3h[8:1]/7h[8:1],,,4h[8:1]`8h[8:1],
,,1h[8:1]/5h[8:1],,,2h[8:1]`6h[8:1],,,2-7[8:1]/6-3[8:1],,,,2<3[16:6]/6,,,,
8b,,,,
,,,,,,,,7-3[8:1]/8,,6,,
2V48[16:3],,,,24,,5h[4:1],,,,1>4[16:2]*<6[8:1],,,,1,,
,,7b,5,6,2b,4,3,8b,6,7,1b,3,2,4,3,
5,6,7,8,5,4,3,2,18,7,6,5,43,,,,
{16}3,7,3,7,5,6,5,6,8,6,8,6,5,6,5,6,
3,4,3,2,3,4,3,2,3,4V61[4:1],3,2q1[8:1],,,,,
,,2,,13,,7,,86,,2,,1b/8b-5[8:1],,7,,
{16}5b,4,3,2,1/5b,6,7,8,1<3[4:1]/2b,3,4,5,,,,,
{24}2b,1,8,7,6,5,2q4[4:6],1,8,7,6,5,2,1,8,7,6,5,2,1,8,7,6,5,
2,1,8,7,6,5,2,1,8,7,6,5,2b,,,,,,,,,5-8[8:1]*-1[8:1],,,
{16},,,,,,8,7,1,2,7,6,2,3,6,5,
3,3,5,5,4,4,6,6,5,7,4,8,3,1,1,,
{16}2b>5[8:1],,5p8[8:1],,7p3[8:1],,7,,7p5[4:1],,1>4[8:1],,,,
,,,,5,4,5h[4:1],,,,3,6,1,5,2,7,4,8,5,6,3,4,1,7,2,8,4,6,2,5,3,7,1b-5[32:1],,
{12}7b-4[32:1],7,3b-8[32:1],3,6b-2[32:1],6,1b-5[32:1],1,4b,4,
2bV47[5.92#256:5]`7bV52[4.44#256:3],
,
{1},,
